<?xml version="1.0" standalone="no"?>
<!DOCTYPE svg PUBLIC "-//W3C//DTD SVG 1.1//EN" "http://www.w3.org/Graphics/SVG/1.1/DTD/svg11.dtd" >
<svg xmlns="http://www.w3.org/2000/svg" xmlns:xlink="http://www.w3.org/1999/xlink" version="1.1">
<metadata>
Created by FontForge 20170731 at Fri Mar 11 18:23:42 2022
 By Aleksey,,,
Copyright 2020 The Plus Jakarta Sans Project Authors (https://github.com/tokotype/PlusJakartaSans)
</metadata>
<defs>
<font id="PlusJakartaSans-Regular" horiz-adv-x="573" >
  <font-face 
    font-family="Plus Jakarta Sans"
    font-weight="400"
    font-stretch="normal"
    units-per-em="1000"
    panose-1="0 0 0 0 0 0 0 0 0 0"
    ascent="800"
    descent="-200"
    x-height="536"
    cap-height="745"
    bbox="-157 -240 1360 1189"
    underline-thickness="40"
    underline-position="-215"
    unicode-range="U+000D-FB02"
  />
<missing-glyph horiz-adv-x="640" 
d="M60 675v70h520v-70h-520zM60 0v70h520v-70h-520zM60 225v70h520v-70h-520zM60 450v70h520v-70h-520z" />
    <glyph glyph-name="fi" unicode="fi" horiz-adv-x="582" 
d="M132 0v461h-107v75h107v48q0 56 25 94.5t66 58.5t88 20q10 0 23 -1.5t21 -3.5v-68q-7 2 -19 2.5t-17 0.5q-48 0 -80 -23t-32 -80v-48h301v-75h-301v-461h-75zM445 0v536h75v-536h-75z" />
    <glyph glyph-name="fl" unicode="fl" horiz-adv-x="622" 
d="M132 0v461h-107v75h107v48q0 56 25 94.5t66 58.5t88 20q10 0 23 -1.5t21 -3.5v-68q-7 2 -19 2.5t-17 0.5q-48 0 -80 -23t-32 -80v-48h301v-75h-301v-461h-75zM470 0v757h75v-757h-75z" />
    <glyph glyph-name="f_f" unicode="ff" horiz-adv-x="776" 
d="M132 0v461h-107v75h107v48q0 56 25 94.5t66 58.5t88 20q10 0 23 -1.5t21 -3.5v-68q-7 2 -19 2.5t-17 0.5q-48 0 -80 -23t-32 -80v-48h301v-75h-301v-461h-75zM515 0v461h-107v75h107v48q0 56 25 94.5t66 58.5t88 20q10 0 23 -1.5t21 -3.5v-68q-7 2 -19 2.5t-17 0.5
q-48 0 -80 -23t-32 -80v-48h131v-75h-131v-461h-75z" />
    <glyph glyph-name="f_f_i" unicode="ffi" horiz-adv-x="965" 
d="M132 0v461h-107v75h107v48q0 56 25 94.5t66 58.5t88 20q10 0 23 -1.5t21 -3.5v-68q-7 2 -19 2.5t-17 0.5q-48 0 -80 -23t-32 -80v-48h301v-75h-301v-461h-75zM828 0v536h75v-536h-75zM515 0v461h-107v75h107v48q0 56 25 94.5t66 58.5t88 20q10 0 23 -1.5t21 -3.5v-68
q-7 2 -19 2.5t-17 0.5q-48 0 -80 -23t-32 -80v-48h301v-75h-301v-461h-75z" />
    <glyph glyph-name="f_f_l" unicode="ffl" horiz-adv-x="1005" 
d="M132 0v461h-107v75h107v48q0 56 25 94.5t66 58.5t88 20q10 0 23 -1.5t21 -3.5v-68q-7 2 -19 2.5t-17 0.5q-48 0 -80 -23t-32 -80v-48h301v-75h-301v-461h-75zM853 0v757h75v-757h-75zM515 0v461h-107v75h107v48q0 56 25 94.5t66 58.5t88 20q10 0 23 -1.5t21 -3.5v-68
q-7 2 -19 2.5t-17 0.5q-48 0 -80 -23t-32 -80v-48h301v-75h-301v-461h-75z" />
    <glyph glyph-name=".notdef" horiz-adv-x="640" 
d="M60 675v70h520v-70h-520zM60 0v70h520v-70h-520zM60 225v70h520v-70h-520zM60 450v70h520v-70h-520z" />
    <glyph glyph-name=".null" horiz-adv-x="0" 
 />
    <glyph glyph-name="nonmarkingreturn" horiz-adv-x="333" 
 />
    <glyph glyph-name="CR" unicode="&#xd;" horiz-adv-x="170" 
 />
    <glyph glyph-name="space" unicode=" " horiz-adv-x="170" 
 />
    <glyph glyph-name="exclam" unicode="!" horiz-adv-x="282" 
d="M106 214l-5 531h80l-5 -531h-70zM101 0v110h80v-110h-80z" />
    <glyph glyph-name="quotedbl" unicode="&#x22;" horiz-adv-x="395" 
d="M95 527l-13 218h80l-12 -218h-55zM245 527l-13 218h80l-12 -218h-55z" />
    <glyph glyph-name="numbersign" unicode="#" horiz-adv-x="790" 
d="M103 0l56 195h-120v70h140l62 215h-120v70h140l56 195h80l-56 -195h210l56 195h80l-56 -195h120v-70h-140l-62 -215h120v-70h-140l-56 -195h-80l56 195h-210l-56 -195h-80zM259 265h210l62 215h-210z" />
    <glyph glyph-name="dollar" unicode="$" horiz-adv-x="646" 
d="M339 -12q-71 0 -129 27t-98 72.5t-57 100.5l72 27q26 -76 81 -115.5t131 -39.5q48 0 84.5 15.5t56.5 43.5t20 65q0 55 -30 85t-86 46l-134 40q-79 23 -121.5 77t-42.5 123q0 59 29 104.5t79.5 71.5t114.5 26q67 0 120.5 -24.5t90.5 -64.5t53 -89l-70 -28
q-24 66 -74.5 100t-118.5 34q-43 0 -75.5 -15t-50.5 -43t-18 -66q0 -46 29 -82.5t89 -54.5l118 -35q88 -26 133 -75t45 -123q0 -60 -30.5 -105.5t-85 -71.5t-125.5 -26zM296 -100v945h70v-945h-70z" />
    <glyph glyph-name="percent" unicode="%" horiz-adv-x="974" 
d="M138 0l610 745h97l-610 -745h-97zM247 367q-54 0 -98 26.5t-70.5 70.5t-26.5 98t26.5 98.5t70.5 70.5t98 26t98 -26t70 -70.5t26 -98.5t-26 -98t-70 -70.5t-98 -26.5zM247 439q35 0 61.5 17.5t42 46t15.5 59.5q0 32 -15.5 60t-42 45.5t-61.5 17.5q-34 0 -61.5 -17.5
t-43 -45.5t-15.5 -60q0 -31 15.5 -59.5t43 -46t61.5 -17.5zM727 -12q-54 0 -98 26.5t-70.5 70.5t-26.5 98t26.5 98.5t70.5 70.5t98 26t98 -26t70 -70.5t26 -98.5t-26 -98t-70 -70.5t-98 -26.5zM727 60q35 0 61.5 17.5t42 46t15.5 59.5q0 32 -15.5 60t-42 45.5t-61.5 17.5
q-34 0 -61.5 -17.5t-43 -45.5t-15.5 -60q0 -31 15.5 -59.5t43 -46t61.5 -17.5z" />
    <glyph glyph-name="ampersand" unicode="&#x26;" horiz-adv-x="734" 
d="M264 -12q-60 0 -107 23t-74 65t-27 98q0 48 18 85t44.5 64.5t54 46.5t46.5 31l52 32q28 17 55.5 38.5t46 50t18.5 63.5q0 42 -28 70t-70 28q-43 0 -70.5 -28t-27.5 -71q0 -28 13.5 -55t34 -51.5t42.5 -47.5l410 -430h-107l-366 378q-24 25 -48.5 55.5t-41.5 67t-17 80.5
q0 52 24 91.5t64.5 62t89.5 22.5q48 0 88 -22t64 -61t24 -89q0 -53 -24.5 -92.5t-59.5 -67.5t-65 -47l-50 -31q-27 -17 -57 -40.5t-51 -55t-21 -75.5q0 -54 35 -84t90 -30q36 0 64 12t50 31.5t40 44t34 48.5l115 171h91l-134 -204q-16 -25 -39 -55.5t-54 -58t-72.5 -45.5
t-96.5 -18z" />
    <glyph glyph-name="quotesingle" unicode="'" horiz-adv-x="245" 
d="M95 527l-13 218h80l-12 -218h-55z" />
    <glyph glyph-name="parenleft" unicode="(" horiz-adv-x="295" 
d="M210 -140q-79 90 -120.5 203t-41.5 240q0 128 41.5 240.5t120.5 201.5h65q-72 -100 -109.5 -213t-37.5 -229t37.5 -229t109.5 -214h-65z" />
    <glyph glyph-name="parenright" unicode=")" horiz-adv-x="295" 
d="M20 -140q72 101 109.5 214t37.5 229t-37.5 229t-109.5 213h65q80 -89 121 -201.5t41 -240.5q0 -127 -41 -240t-121 -203h-65z" />
    <glyph glyph-name="asterisk" unicode="*" horiz-adv-x="479" 
d="M152 383l-58 42l86 114l-127 43l22 68l128 -42v137h72v-137l128 42l22 -68l-127 -43l86 -114l-58 -42l-87 114z" />
    <glyph glyph-name="plus" unicode="+" horiz-adv-x="606" 
d="M266 0v213h-213v75h213v212h75v-212h212v-75h-212v-213h-75z" />
    <glyph glyph-name="comma" unicode="," horiz-adv-x="270" 
d="M80 -130v35q30 8 44 31t14 64h-38v110h80v-84q0 -65 -25 -104.5t-75 -51.5z" />
    <glyph glyph-name="hyphen" unicode="-" horiz-adv-x="498" 
d="M74 233v70h350v-70h-350z" />
    <glyph glyph-name="period" unicode="." horiz-adv-x="286" 
d="M103 0v110h80v-110h-80z" />
    <glyph glyph-name="slash" unicode="/" horiz-adv-x="429" 
d="M2 -120l338 824h87l-338 -824h-87z" />
    <glyph glyph-name="zero" unicode="0" horiz-adv-x="732" 
d="M367 -12q-88 0 -154.5 48.5t-103.5 135t-37 201.5t37 201.5t103 134.5t154 48t154 -48t103 -134.5t37 -201.5t-36.5 -202t-102.5 -135t-154 -48zM367 63q64 0 112 39t75 108.5t27 162.5t-27 162.5t-75 108t-113 38.5q-64 0 -112 -38.5t-75 -108t-27 -162.5q0 -92 27 -162
t75.5 -109t112.5 -39z" />
    <glyph glyph-name="one" unicode="1" horiz-adv-x="371" 
d="M181 0v675h-140v70h220v-745h-80z" />
    <glyph glyph-name="two" unicode="2" horiz-adv-x="600" 
d="M58 0v50l208 229q61 67 99.5 111t57.5 80t19 78q0 67 -39 103t-104 36q-67 0 -112.5 -38t-61.5 -106l-73 16q13 61 47 105t85 68.5t114 24.5q67 0 117 -27t78.5 -74t28.5 -108q0 -42 -17.5 -81t-52.5 -84t-90 -105l-189 -208h369v-70h-484z" />
    <glyph glyph-name="three" unicode="3" horiz-adv-x="609" 
d="M294 -12q-58 0 -107 20t-85.5 57t-55.5 88l64 30q23 -58 72 -91.5t112 -33.5q50 0 89 19.5t61 56.5t22 90t-22.5 90t-61.5 56t-89 19q-13 0 -28.5 -1t-25.5 -3l-16 35l201 255h-343v70h433v-70l-188 -237l-10 13q67 -2 119 -31.5t81.5 -79.5t29.5 -116t-32 -119.5
t-89 -85t-131 -31.5z" />
    <glyph glyph-name="four" unicode="4" horiz-adv-x="630" 
d="M425 0v176h-379v65l379 504h70v-504h91v-65h-91v-176h-70zM107 212l-9 29h327v435l25 -7z" />
    <glyph glyph-name="five" unicode="5" horiz-adv-x="616" 
d="M302 -12q-58 0 -107.5 20t-86.5 57t-56 88l61 30q23 -58 75.5 -91.5t113.5 -33.5q49 0 87.5 23t60.5 62.5t22 88.5q0 51 -22.5 90t-60.5 61.5t-86 22.5q-49 0 -90.5 -22.5t-60.5 -54.5l-63 12l56 404h377v-70h-348l31 27l-45 -318l-31 14q35 43 82 61.5t96 18.5
q72 0 127 -33.5t86.5 -89t31.5 -123.5q0 -69 -32.5 -124.5t-89 -87.5t-128.5 -32z" />
    <glyph glyph-name="six" unicode="6" horiz-adv-x="597" 
d="M300 -12q-70 0 -124 31.5t-85 87t-31 127.5q0 40 9.5 79t29 77t47.5 76l210 279h96l-259 -339l-15 -9q15 25 35 38.5t44.5 19.5t52.5 6q65 0 117 -30.5t82.5 -83.5t30.5 -123q0 -67 -31.5 -120.5t-85.5 -84.5t-123 -31zM300 58q46 0 82 21.5t57 59.5t21 85q0 48 -20.5 85
t-56.5 58.5t-83 21.5q-46 0 -82.5 -21.5t-57 -58.5t-20.5 -85q0 -47 21 -85t57 -59.5t82 -21.5z" />
    <glyph glyph-name="seven" unicode="7" horiz-adv-x="543" 
d="M79 0l336 675h-372v70h455v-70l-335 -675h-84z" />
    <glyph glyph-name="eight" unicode="8" horiz-adv-x="628" 
d="M314 -12q-72 0 -128.5 29.5t-89 81t-32.5 116.5q0 71 40.5 127t109.5 78v-21q-53 23 -82 68.5t-29 97.5q0 55 28 98t75.5 68.5t107.5 25.5q61 0 108 -24.5t74.5 -68t27.5 -99.5t-30 -99.5t-79 -66.5l-1 21q69 -22 109.5 -78t40.5 -127q0 -65 -32.5 -116.5t-89 -81
t-128.5 -29.5zM314 58q51 0 89 19.5t59.5 55t21.5 82.5t-21.5 82.5t-59.5 55t-89 19.5t-89.5 -19.5t-59.5 -55t-21 -82.5t21 -82.5t59.5 -55t89.5 -19.5zM314 442q37 0 66 15.5t46.5 43t17.5 64.5t-17.5 64t-46.5 42.5t-66 15.5t-66.5 -15.5t-47 -42.5t-17.5 -64t17.5 -64.5
t47 -43t66.5 -15.5z" />
    <glyph glyph-name="nine" unicode="9" horiz-adv-x="597" 
d="M145 0l259 339l15 9q-15 -24 -35 -38t-44 -20t-53 -6q-65 0 -117 30.5t-82.5 84t-30.5 122.5q0 68 31.5 121t86 84t122.5 31q70 0 124 -31.5t85 -87t31 -127.5q0 -40 -9.5 -79t-28.5 -77t-48 -76l-210 -279h-96zM297 356q47 0 83 21.5t56.5 59t20.5 84.5q0 48 -21 85.5
t-57 59t-82 21.5t-82 -21.5t-57 -59t-21 -85.5q0 -47 20.5 -84.5t57 -59t82.5 -21.5z" />
    <glyph glyph-name="colon" unicode=":" horiz-adv-x="286" 
d="M103 0v110h80v-110h-80zM103 426v110h80v-110h-80z" />
    <glyph glyph-name="semicolon" unicode=";" horiz-adv-x="306" 
d="M103 -130v30q30 8 46 33.5t17 66.5h-43v110h80v-84q0 -65 -25 -104.5t-75 -51.5zM123 426v110h80v-110h-80z" />
    <glyph glyph-name="less" unicode="&#x3c;" horiz-adv-x="606" 
d="M534 39l-410 195v68l410 195v-81l-356 -163v30l356 -163v-81z" />
    <glyph glyph-name="equal" unicode="=" horiz-adv-x="606" 
d="M78 331v75h450v-75h-450zM78 96v75h450v-75h-450z" />
    <glyph glyph-name="greater" unicode="&#x3e;" horiz-adv-x="606" 
d="M72 39v81l356 163v-30l-356 163v81l410 -195v-68z" />
    <glyph glyph-name="question" unicode="?" horiz-adv-x="499" 
d="M167 214v10q0 45 16.5 79.5t41.5 63t52 53.5q38 36 68 72.5t30 85.5q0 28 -14 53t-41.5 40.5t-66.5 15.5q-56 0 -96 -35t-51 -93l-71 15q9 55 39 96t76 64t103 23q60 0 105.5 -25t71 -65.5t25.5 -88.5q0 -45 -19 -80t-48 -64.5t-58 -58.5q-33 -33 -58 -68.5t-25 -82.5
v-10h-80zM170 0v110h80v-110h-80z" />
    <glyph glyph-name="at" unicode="@" horiz-adv-x="929" 
d="M482 -207q-88 0 -163.5 31.5t-132.5 88.5t-88.5 132.5t-31.5 162.5t32 162t88.5 131t132.5 87.5t163 31.5q90 0 166 -33.5t131.5 -91t86 -130.5t30.5 -153q0 -63 -19.5 -110.5t-56.5 -74.5t-89 -27q-31 0 -59 11.5t-47.5 33t-26.5 51.5l16 -13q-16 -27 -39.5 -45.5
t-52.5 -28t-63 -9.5q-58 0 -104.5 28t-73.5 76t-27 109t27 109t73.5 76.5t104.5 28.5q49 0 89.5 -20t64.5 -56l-7 -12v78h65v-276q0 -37 16.5 -54t44.5 -17q42 0 65.5 35t23.5 105q0 72 -25 134t-70 108t-107 72t-137 26q-73 0 -135.5 -25.5t-108.5 -71.5t-71.5 -108
t-25.5 -136q0 -72 24.5 -134.5t70 -110t108.5 -74.5t140 -27q45 0 87 9.5t76 28.5l32 -60q-85 -48 -197 -48zM462 70q39 0 69 19t47.5 51.5t17.5 73.5q0 62 -38 101.5t-96 39.5q-38 0 -68.5 -18.5t-47.5 -50.5t-17 -73q0 -40 17.5 -72.5t47.5 -51.5t68 -19z" />
    <glyph glyph-name="A" unicode="A" horiz-adv-x="652" 
d="M11 0l272 745h86l272 -745h-84l-64 182h-333l-65 -182h-84zM186 257h279l-151 428h24z" />
    <glyph glyph-name="B" unicode="B" horiz-adv-x="693" 
d="M88 0v745h313q63 0 109.5 -23.5t72 -65.5t25.5 -98q0 -58 -28.5 -102.5t-81.5 -67.5l-1 24q44 -16 75.5 -45t48.5 -67.5t17 -82.5q0 -100 -63.5 -158.5t-172.5 -58.5h-314zM168 75h234q71 0 113.5 37.5t42.5 103.5q0 65 -42.5 103.5t-113.5 38.5h-234v-283zM168 430h227
q60 0 96.5 35t36.5 90q0 56 -36.5 85.5t-96.5 29.5h-227v-240z" />
    <glyph glyph-name="C" unicode="C" horiz-adv-x="781" 
d="M428 -12q-79 0 -145 28.5t-114.5 80t-75.5 121.5t-27 154t27 154t75.5 122t114.5 80.5t145 28.5q76 0 136.5 -27t102 -69.5t59.5 -89.5l-75 -33q-28 65 -85.5 104.5t-137.5 39.5q-82 0 -146 -39t-100 -108.5t-36 -162.5q0 -92 36 -162t100 -108.5t146 -38.5
q80 0 137.5 39t85.5 104l75 -33q-18 -46 -59.5 -88.5t-102 -69.5t-136.5 -27z" />
    <glyph glyph-name="D" unicode="D" horiz-adv-x="742" 
d="M88 0v745h245q111 0 193 -45.5t127 -129t45 -197.5q0 -113 -45 -197t-127 -130t-193 -46h-245zM168 75h165q86 0 149 36.5t97.5 103.5t34.5 158t-35 157.5t-98 103t-148 36.5h-165v-595z" />
    <glyph glyph-name="E" unicode="E" horiz-adv-x="612" 
d="M88 0v745h480v-75h-400v-259h380v-75h-380v-261h400v-75h-480z" />
    <glyph glyph-name="F" unicode="F" horiz-adv-x="581" 
d="M88 0v745h460v-75h-380v-259h350v-75h-350v-336h-80z" />
    <glyph glyph-name="G" unicode="G" horiz-adv-x="821" 
d="M428 -12q-79 0 -145 28.5t-114.5 80t-75.5 121.5t-27 154t27 154t75.5 122t114.5 80.5t145 28.5q76 0 136.5 -27t102 -69.5t59.5 -89.5l-72 -35q-28 68 -86 107t-140 39t-146 -39t-100 -108.5t-36 -162.5q0 -92 36 -162t100 -108.5t146 -38.5q73 0 131.5 32t92.5 87.5
t34 127.5v41l36 -36h-294v70h338v-62q0 -73 -26 -134.5t-72 -106.5t-107.5 -69.5t-132.5 -24.5z" />
    <glyph glyph-name="H" unicode="H" horiz-adv-x="736" 
d="M88 0v745h80v-335h400v335h80v-745h-80v335h-400v-335h-80z" />
    <glyph glyph-name="I" unicode="I" horiz-adv-x="256" 
d="M88 0v745h80v-745h-80z" />
    <glyph glyph-name="J" unicode="J" horiz-adv-x="383" 
d="M55 0v80h40q56 0 88 33.5t32 91.5v540h80v-540q0 -63 -24.5 -109t-69.5 -71t-106 -25h-40z" />
    <glyph glyph-name="K" unicode="K" horiz-adv-x="654" 
d="M88 0v745h80v-435l-18 9l375 426h100l-301 -342l4 57l315 -460h-96l-254 367l-125 -142v-225h-80z" />
    <glyph glyph-name="L" unicode="L" horiz-adv-x="531" 
d="M88 0v745h80v-670h330v-75h-410z" />
    <glyph glyph-name="M" unicode="M" horiz-adv-x="836" 
d="M88 0v745h70l280 -406h-39l279 406h70v-745h-80v637l26 -10l-274 -397h-4l-273 397l25 10v-637h-80z" />
    <glyph glyph-name="N" unicode="N" horiz-adv-x="736" 
d="M88 0v745h70l437 -627h-27v627h80v-745h-70l-437 631h27v-631h-80z" />
    <glyph glyph-name="O" unicode="O" horiz-adv-x="878" 
d="M439 -12q-78 0 -145.5 28.5t-118.5 80t-80 122t-29 154.5t29 154.5t80 122t118.5 79.5t145.5 28t145.5 -28.5t118.5 -80t80 -121.5t29 -154t-29 -154.5t-80 -122t-118.5 -80t-145.5 -28.5zM439 63q65 0 118.5 24t92.5 67t60.5 99t21.5 120q0 63 -21.5 119t-60.5 99
t-92.5 67t-118.5 24t-118.5 -24t-92.5 -67t-60.5 -99t-21.5 -119q0 -64 21.5 -120t60.5 -99t93 -67t118 -24z" />
    <glyph glyph-name="P" unicode="P" horiz-adv-x="643" 
d="M88 0v745h256q73 0 128 -28.5t85.5 -80t30.5 -119.5t-30.5 -119t-85 -79.5t-128.5 -28.5h-176v-290h-80zM168 365h180q48 0 84 18.5t56 53t20 81.5t-20 81t-56 52.5t-84 18.5h-180v-305z" />
    <glyph glyph-name="Q" unicode="Q" horiz-adv-x="878" 
d="M439 -12q-78 0 -145.5 28.5t-118.5 80t-80 122t-29 154.5t29 154.5t80 122t118.5 79.5t145.5 28t145.5 -28.5t118.5 -80t80 -121.5t29 -154t-29 -154.5t-80 -122t-118.5 -80t-145.5 -28.5zM439 63q65 0 118.5 24t92.5 67t60.5 99t21.5 120q0 63 -21.5 119t-60.5 99
t-92.5 67t-118.5 24t-118.5 -24t-92.5 -67t-60.5 -99t-21.5 -119q0 -64 21.5 -120t60.5 -99t93 -67t118 -24zM654 -90l-265 388h91l265 -388h-91z" />
    <glyph glyph-name="R" unicode="R" horiz-adv-x="641" 
d="M88 0v745h256q73 0 128 -28.5t85.5 -80t30.5 -119.5q0 -79 -41.5 -135t-112.5 -79l174 -303h-94l-182 321l54 -31h-218v-290h-80zM168 365h180q48 0 84 18.5t56 53t20 81.5t-20 81t-56 52.5t-84 18.5h-180v-305z" />
    <glyph glyph-name="S" unicode="S" horiz-adv-x="646" 
d="M339 -12q-71 0 -129 27t-98 72.5t-57 100.5l72 27q26 -76 81 -115.5t131 -39.5q48 0 84.5 15.5t56.5 43.5t20 65q0 55 -30 85t-86 46l-134 40q-79 23 -121.5 77t-42.5 123q0 59 29 104.5t79.5 71.5t114.5 26q67 0 120.5 -24.5t90.5 -64.5t53 -89l-70 -28
q-24 66 -74.5 100t-118.5 34q-43 0 -75.5 -15t-50.5 -43t-18 -66q0 -46 29 -82.5t89 -54.5l118 -35q88 -26 133 -75t45 -123q0 -60 -30.5 -105.5t-85 -71.5t-125.5 -26z" />
    <glyph glyph-name="T" unicode="T" horiz-adv-x="512" 
d="M217 0v670h-206v75h490v-75h-204v-670h-80z" />
    <glyph glyph-name="U" unicode="U" horiz-adv-x="700" 
d="M350 -12q-79 0 -139 33t-93 90.5t-33 131.5v502h80v-502q0 -54 23.5 -94.5t65 -63t96.5 -22.5t96.5 22.5t65 63t23.5 94.5v502h80v-502q0 -74 -33 -131.5t-92.5 -90.5t-139.5 -33z" />
    <glyph glyph-name="V" unicode="V" horiz-adv-x="652" 
d="M284 0l-273 745h83l240 -674h-16l239 674h84l-273 -745h-84z" />
    <glyph glyph-name="W" unicode="W" horiz-adv-x="984" 
d="M225 0l-214 745h81l185 -667h-17l190 667h85l189 -667h-18l186 667h81l-214 -745h-85l-191 670h18l-191 -670h-85z" />
    <glyph glyph-name="X" unicode="X" horiz-adv-x="597" 
d="M11 0l242 380l-234 365h90l203 -318h-27l202 318h90l-234 -365l243 -380h-90l-211 332h27l-213 -332h-88z" />
    <glyph glyph-name="Y" unicode="Y" horiz-adv-x="623" 
d="M272 0v346l-261 399h89l228 -347h-32l227 347h89l-260 -399v-346h-80z" />
    <glyph glyph-name="Z" unicode="Z" horiz-adv-x="584" 
d="M22 0v54l426 616h-401v75h506v-54l-425 -616h434v-75h-540z" />
    <glyph glyph-name="bracketleft" unicode="[" horiz-adv-x="315" 
d="M88 -140v885h200v-70h-120v-745h120v-70h-200z" />
    <glyph glyph-name="backslash" unicode="\" horiz-adv-x="429" 
d="M340 -120l-338 825h87l338 -825h-87z" />
    <glyph glyph-name="bracketright" unicode="]" horiz-adv-x="315" 
d="M27 -140v70h120v745h-120v70h200v-885h-200z" />
    <glyph glyph-name="asciicircum" unicode="^" horiz-adv-x="606" 
d="M99 425l169 320h70l169 -320h-86l-133 259h33l-136 -259h-86z" />
    <glyph glyph-name="underscore" unicode="_" horiz-adv-x="598" 
d="M74 -70v70h450v-70h-450z" />
    <glyph glyph-name="grave" unicode="`" horiz-adv-x="352" 
d="M217 640l-114 150h103l87 -150h-76z" />
    <glyph glyph-name="a" unicode="a" horiz-adv-x="572" 
d="M232 -12q-51 0 -91 19.5t-63 53.5t-23 78q0 42 18 76.5t56 58.5t97 34l210 35v-68l-192 -32q-58 -10 -83.5 -37t-25.5 -64q0 -36 28.5 -61t73.5 -25q55 0 96 23.5t64 63.5t23 89v136q0 48 -35 78t-91 30q-49 0 -86 -24.5t-55 -63.5l-68 37q15 34 47.5 62t74.5 44.5
t87 16.5q59 0 104.5 -23t71 -63.5t25.5 -93.5v-368h-75v107l11 -11q-14 -30 -43.5 -54.5t-69 -39t-86.5 -14.5z" />
    <glyph glyph-name="b" unicode="b" horiz-adv-x="667" 
d="M348 -12q-69 0 -124.5 31.5t-83.5 89.5l12 11v-120h-75v757h75v-341l-12 21q32 51 85.5 81t122.5 30q76 0 135.5 -36.5t94 -99.5t34.5 -144q0 -80 -34.5 -143.5t-94 -100t-135.5 -36.5zM344 63q54 0 96.5 27t67 73.5t24.5 104.5q0 59 -24.5 105t-67 73t-96.5 27
t-97.5 -27t-69 -73.5t-25.5 -104.5t25.5 -104.5t69 -73.5t97.5 -27z" />
    <glyph glyph-name="c" unicode="c" horiz-adv-x="600" 
d="M322 -12q-79 0 -139 37t-94 100.5t-34 143.5t34 143t94 99.5t139 36.5q50 0 94 -18t78 -48.5t51 -70.5l-68 -35q-20 43 -61 70t-94 27t-95.5 -26.5t-67 -73t-24.5 -105.5q0 -58 24.5 -104.5t67 -73.5t95.5 -27t93.5 27t61.5 72l68 -37q-17 -39 -51 -70t-78 -49t-94 -18z
" />
    <glyph glyph-name="d" unicode="d" horiz-adv-x="667" 
d="M319 -12q-75 0 -135 36.5t-94.5 100t-34.5 143.5q0 81 34.5 144t94 99.5t135.5 36.5q69 0 123 -30t85 -81l-12 -21v341h75v-757h-75v120l12 -11q-28 -58 -83.5 -89.5t-124.5 -31.5zM323 63q54 0 97.5 27t69 73.5t25.5 104.5t-25.5 104.5t-69 73.5t-97.5 27q-53 0 -96 -27
t-67.5 -73t-24.5 -105q0 -58 24.5 -104.5t67 -73.5t96.5 -27z" />
    <glyph glyph-name="e" unicode="e" horiz-adv-x="615" 
d="M321 -12q-75 0 -135.5 36.5t-95.5 100.5t-35 145t34 143.5t92.5 98.5t131.5 36q58 0 103.5 -21.5t77.5 -58t49 -82t17 -93.5q0 -10 -1 -22.5t-3 -25.5h-453v70h410l-36 -30q9 55 -12.5 98.5t-61.5 69t-90 25.5t-92.5 -26t-66.5 -72.5t-19 -110.5q-5 -64 20.5 -111.5
t70 -73.5t95.5 -26q59 0 99 28t65 70l64 -34q-16 -36 -49 -66.5t-78.5 -49t-100.5 -18.5z" />
    <glyph glyph-name="f" unicode="f" horiz-adv-x="393" 
d="M132 0v461h-107v75h107v48q0 56 25 94.5t66 58.5t88 20q10 0 23 -1.5t21 -3.5v-68q-7 2 -19 2.5t-17 0.5q-48 0 -80 -23t-32 -80v-48h131v-75h-131v-461h-75z" />
    <glyph glyph-name="g" unicode="g" horiz-adv-x="662" 
d="M331 -220q-55 0 -101.5 17t-80 46.5t-51.5 68.5l69 37q16 -38 57 -66t105 -28q49 0 90 19t66 56t25 91v119l12 -11q-28 -58 -83 -89.5t-120 -31.5q-75 0 -135 36t-94.5 97.5t-34.5 136.5q0 76 34.5 137t94 97t135.5 36q65 0 118.5 -30t84.5 -81l-12 -21v120h75v-515
q0 -69 -32.5 -123.5t-90 -86t-131.5 -31.5zM323 83q52 0 94 26.5t67.5 71t25.5 97.5t-25.5 97.5t-67.5 71t-94 26.5q-53 0 -96 -26.5t-67.5 -70.5t-24.5 -98q0 -53 24.5 -97.5t67 -71t96.5 -26.5z" />
    <glyph glyph-name="h" unicode="h" 
d="M77 0v757h75v-325l-17 4q20 52 65.5 82t105.5 30q57 0 102.5 -26t72 -71.5t26.5 -102.5v-348h-75v319q0 49 -18 83t-49.5 52.5t-71.5 18.5t-72 -18.5t-50.5 -53t-18.5 -82.5v-319h-75z" />
    <glyph glyph-name="i" unicode="i" horiz-adv-x="229" 
d="M77 0v536h75v-536h-75zM77 635v110h75v-110h-75z" />
    <glyph glyph-name="j" unicode="j" horiz-adv-x="229" 
d="M-23 -220q-7 0 -19.5 1t-20.5 3v69q21 -3 42 -3q41 0 69.5 25t28.5 75v586h75v-586q0 -55 -24 -93t-63.5 -57.5t-87.5 -19.5zM77 635v110h75v-110h-75z" />
    <glyph glyph-name="k" unicode="k" horiz-adv-x="548" 
d="M77 0v757h75v-530l-32 5l301 304h97l-210 -215l229 -321h-90l-215 297l48 -4l-153 -158l25 62v-197h-75z" />
    <glyph glyph-name="l" unicode="l" horiz-adv-x="229" 
d="M77 0v757h75v-757h-75z" />
    <glyph glyph-name="m" unicode="m" horiz-adv-x="908" 
d="M77 0v536h75v-102l-12 15q22 47 65.5 73t95.5 26q62 0 112 -35t71 -91l-21 -1q20 62 69.5 94.5t109.5 32.5q54 0 99.5 -26t73 -71.5t27.5 -102.5v-348h-75v319q0 49 -17.5 83t-47.5 52.5t-69 18.5q-38 0 -69 -18.5t-49 -53t-18 -82.5v-319h-75v319q0 49 -17.5 83
t-47.5 52.5t-69 18.5t-69.5 -18.5t-48.5 -53t-18 -82.5v-319h-75z" />
    <glyph glyph-name="n" unicode="n" 
d="M77 0v536h75v-104l-17 4q20 52 65.5 82t105.5 30q57 0 102.5 -26t72 -71.5t26.5 -102.5v-348h-75v319q0 49 -17.5 83t-49 52.5t-72.5 18.5t-73 -18.5t-50 -53t-18 -82.5v-319h-75z" />
    <glyph glyph-name="o" unicode="o" horiz-adv-x="655" 
d="M328 -12q-76 0 -138 36.5t-98.5 100t-36.5 144.5q0 80 36 143t97.5 99.5t139.5 36.5t139.5 -36t97 -99t35.5 -144q0 -82 -37 -145.5t-98.5 -99.5t-136.5 -36zM328 63q54 0 97.5 27t69 74t25.5 105t-25.5 104t-69 73t-97.5 27t-97.5 -27t-69.5 -73t-26 -104t26 -105
t69.5 -74t97.5 -27z" />
    <glyph glyph-name="p" unicode="p" horiz-adv-x="667" 
d="M77 -200v736h75v-120l-12 21q32 51 85.5 81t122.5 30q76 0 135.5 -36.5t94 -99.5t34.5 -144q0 -80 -34.5 -143.5t-94 -100t-135.5 -36.5q-69 0 -124.5 31.5t-83.5 89.5l12 11v-320h-75zM344 63q54 0 96.5 27t67 73.5t24.5 104.5q0 59 -24.5 105t-67 73t-96.5 27
t-97.5 -27t-69 -73.5t-25.5 -104.5t25.5 -104.5t69 -73.5t97.5 -27z" />
    <glyph glyph-name="q" unicode="q" horiz-adv-x="667" 
d="M515 -200v320l12 -11q-28 -58 -83.5 -89.5t-124.5 -31.5q-75 0 -135 36.5t-94.5 100t-34.5 143.5q0 81 34.5 144t94 99.5t135.5 36.5q69 0 123 -30t85 -81l-12 -21v120h75v-736h-75zM323 63q54 0 97.5 27t69 73.5t25.5 104.5t-25.5 104.5t-69 73.5t-97.5 27
q-53 0 -96 -27t-67.5 -73t-24.5 -105q0 -58 24.5 -104.5t67 -73.5t96.5 -27z" />
    <glyph glyph-name="r" unicode="r" horiz-adv-x="338" 
d="M77 0v536h75v-88l-10 13q19 38 57.5 60t93.5 22h34v-75h-47q-58 0 -93 -36t-35 -102v-330h-75z" />
    <glyph glyph-name="s" unicode="s" horiz-adv-x="509" 
d="M263 -12q-77 0 -135 39t-84 106l63 30q23 -49 64.5 -78t91.5 -29q48 0 81 23.5t33 61.5q0 28 -16 44.5t-37 25.5t-37 13l-77 22q-74 21 -107 59t-33 88q0 47 24 82t65 54t91 19q68 0 123.5 -35.5t78.5 -98.5l-64 -30q-20 45 -57.5 70.5t-83.5 25.5q-45 0 -72 -23t-27 -58
q0 -27 14 -43t32.5 -24t32.5 -12l89 -26q65 -19 101.5 -59t36.5 -94q0 -44 -24.5 -79t-67.5 -54.5t-99 -19.5z" />
    <glyph glyph-name="t" unicode="t" horiz-adv-x="388" 
d="M282 -6q-72 0 -111 42t-39 120v305h-99v75h25q34 0 54 22.5t20 56.5v45h75v-124h118v-75h-118v-305q0 -27 8 -47.5t27.5 -32.5t52.5 -12q8 0 19 1t19 2v-67q-12 -3 -27 -4.5t-24 -1.5z" />
    <glyph glyph-name="u" unicode="u" 
d="M267 -12q-56 0 -102 26.5t-72.5 74t-26.5 109.5v338h75v-329q0 -43 17.5 -75.5t49 -50.5t72.5 -18t73 18.5t50 53t18 82.5v319h75v-536h-75v104l17 -4q-19 -52 -65 -82t-106 -30z" />
    <glyph glyph-name="v" unicode="v" horiz-adv-x="517" 
d="M220 0l-209 536h84l176 -470h-27l177 470h85l-211 -536h-75z" />
    <glyph glyph-name="w" unicode="w" horiz-adv-x="797" 
d="M195 0l-184 536h85l152 -469h-30l143 469h75l143 -469h-30l153 469h84l-184 -536h-75l-139 459h21l-139 -459h-75z" />
    <glyph glyph-name="x" unicode="x" horiz-adv-x="487" 
d="M11 0l188 268l-187 268h92l166 -241h-51l165 241h92l-187 -268l187 -268h-92l-165 241h51l-166 -241h-93z" />
    <glyph glyph-name="y" unicode="y" horiz-adv-x="536" 
d="M88 -220q-16 0 -32.5 2.5t-32.5 8.5v70q10 -1 25.5 -3.5t31.5 -2.5q49 0 75 20.5t51 78.5l34 80l-2 -66l-227 568h81l186 -469h-21l185 469h83l-245 -604q-16 -39 -40.5 -74t-61.5 -56.5t-90 -21.5z" />
    <glyph glyph-name="z" unicode="z" horiz-adv-x="449" 
d="M22 0v65l323 425l14 -29h-320v75h386v-65l-322 -425l-14 29h338v-75h-405z" />
    <glyph glyph-name="braceleft" unicode="{" horiz-adv-x="317" 
d="M256 -140q-64 0 -104 38.5t-40 102.5v193q0 33 -15.5 53t-48.5 20h-28v70h28q33 0 48.5 20t15.5 53v194q0 64 40 102.5t104 38.5h34v-70h-34q-30 0 -47.5 -19.5t-16.5 -51.5v-190q2 -33 -10 -61.5t-38 -50.5q24 -19 37 -48.5t11 -61.5v-191q-1 -31 16.5 -51t47.5 -20h34
v-70h-34z" />
    <glyph glyph-name="bar" unicode="|" horiz-adv-x="300" 
d="M110 -190v1035h80v-1035h-80z" />
    <glyph glyph-name="braceright" unicode="}" horiz-adv-x="317" 
d="M27 -140v70h34q30 0 48 20t16 51v191q-1 32 11.5 61.5t36.5 48.5q-25 22 -37.5 50.5t-10.5 61.5v190q2 32 -16 51.5t-48 19.5h-34v70h34q65 0 104.5 -38.5t39.5 -102.5v-194q0 -33 15.5 -53t48.5 -20h28v-70h-28q-33 0 -48.5 -20t-15.5 -53v-193q0 -64 -39.5 -102.5
t-104.5 -38.5h-34z" />
    <glyph glyph-name="asciitilde" unicode="~" horiz-adv-x="606" 
d="M402 220q-33 0 -56.5 10.5t-43 24.5t-39 24.5t-43.5 10.5q-29 0 -48 -17.5t-24 -49.5h-67q6 68 41 102.5t89 34.5q33 0 56.5 -10.5t43 -24.5t39 -24.5t43.5 -10.5q26 0 43 16t23 51h67q-6 -67 -38 -102t-86 -35z" />
    <glyph glyph-name="uni00A0" unicode="&#xa0;" horiz-adv-x="170" 
 />
    <glyph glyph-name="exclamdown" unicode="&#xa1;" horiz-adv-x="282" 
d="M101 -209l5 531h70l5 -531h-80zM101 426v110h80v-110h-80z" />
    <glyph glyph-name="cent" unicode="&#xa2;" horiz-adv-x="600" 
d="M322 93q-79 0 -139 37t-94 100.5t-34 143.5t34 143t94 99.5t139 36.5q50 0 94 -18t78 -48.5t51 -70.5l-68 -35q-20 43 -61 70t-94 27t-95.5 -26.5t-67 -73t-24.5 -105.5q0 -58 24.5 -104.5t67 -73.5t95.5 -27t93.5 27t61.5 72l68 -37q-17 -39 -51 -70t-78 -49t-94 -18z
M280 0v745h70v-745h-70z" />
    <glyph glyph-name="sterling" unicode="&#xa3;" horiz-adv-x="643" 
d="M44 0v70h100v470q0 65 28.5 113.5t80.5 76t120 27.5q61 0 109 -23.5t79 -66.5t38 -104l-73 -16q-7 68 -48.5 104t-104.5 36q-70 0 -109.5 -39t-39.5 -108v-470h339v-70h-519zM44 346v65h349v-65h-349z" />
    <glyph glyph-name="currency" unicode="&#xa4;" horiz-adv-x="588" 
d="M104 30l-49 49l76 76q-17 24 -27 53.5t-10 60.5t10 60t27 54l-76 76l49 49l76 -76q25 17 54 27t60 10q30 0 59.5 -9.5t54.5 -27.5l76 76l49 -49l-76 -76q17 -25 27 -53.5t10 -60.5t-10 -61t-27 -53l76 -76l-49 -49l-76 76q-24 -17 -53 -27t-61 -10q-29 0 -58.5 9
t-55.5 28zM294 145q34 0 62 16.5t45 45t17 62.5q0 35 -17 63t-45 45t-62 17t-62.5 -17t-45.5 -45t-17 -63q0 -34 17 -62.5t45.5 -45t62.5 -16.5z" />
    <glyph glyph-name="yen" unicode="&#xa5;" horiz-adv-x="623" 
d="M272 0v346l-261 399h89l228 -347h-32l227 347h89l-260 -399v-346h-80zM137 308v65h349v-65h-349zM137 153v65h349v-65h-349z" />
    <glyph glyph-name="brokenbar" unicode="&#xa6;" horiz-adv-x="300" 
d="M110 428v417h80v-417h-80zM110 -190v418h80v-418h-80z" />
    <glyph glyph-name="section" unicode="&#xa7;" horiz-adv-x="529" 
d="M274 -105q-82 0 -142.5 41t-87.5 111l65 31q25 -52 68.5 -82.5t96.5 -30.5q51 0 86 25.5t35 65.5q0 29 -16 46.5t-38.5 27.5t-40.5 15l-82 24q-77 23 -112 62.5t-35 91.5q0 49 25.5 85.5t68.5 57t95 20.5l-3 -50q-48 0 -77 -27.5t-29 -69.5q0 -31 14.5 -50t34 -29
t35.5 -15l94 -28q68 -20 106.5 -62t38.5 -99q0 -46 -25.5 -82.5t-70.5 -57.5t-104 -21zM274 166v50q51 0 86 28t35 73q0 32 -16 51.5t-38.5 31t-40.5 16.5l-82 24q-77 23 -112 62.5t-35 91.5q0 49 25.5 85.5t68.5 57t95 20.5q71 0 129 -37.5t82 -102.5l-65 -31
q-22 47 -61.5 74t-87.5 27t-77 -24.5t-29 -62.5q0 -28 14.5 -45t34 -25.5t35.5 -13.5l94 -28q68 -20 106.5 -62t38.5 -99q0 -46 -25.5 -82.5t-70.5 -57.5t-104 -21z" />
    <glyph glyph-name="dieresis" unicode="&#xa8;" horiz-adv-x="436" 
d="M103 640v100h100v-100h-100zM283 640v100h100v-100h-100z" />
    <glyph glyph-name="copyright" unicode="&#xa9;" horiz-adv-x="895" 
d="M448 -12q-80 0 -150 29.5t-123 82.5t-82.5 123t-29.5 150q0 79 29.5 148.5t82.5 122.5t122.5 83t150.5 30q80 0 149.5 -30t122.5 -83t82.5 -122.5t29.5 -148.5q0 -81 -30 -150.5t-83 -122.5t-122.5 -82.5t-148.5 -29.5zM448 58q66 0 123 24t100 67t67 100.5t24 123.5
q0 65 -24 122t-67 100t-100 67.5t-123 24.5t-123.5 -24t-100.5 -67t-67 -100t-24 -123t24 -123.5t67 -100.5t100.5 -67t123.5 -24zM454 163q-58 0 -103.5 27.5t-72 75t-26.5 107.5q0 61 26.5 108t72 74t103.5 27q43 0 77.5 -14.5t58.5 -38.5t34 -52l-62 -30q-12 29 -39.5 50
t-68.5 21q-58 0 -95 -40t-37 -105t37 -105.5t95 -40.5q39 0 67 20t41 51l62 -30q-10 -28 -34 -52t-58.5 -38.5t-77.5 -14.5z" />
    <glyph glyph-name="ordfeminine" unicode="&#xaa;" horiz-adv-x="455" 
d="M183 361q-57 0 -92.5 29.5t-35.5 77.5q0 47 32 78.5t94 41.5l135 23v-60l-120 -20q-34 -6 -49 -21.5t-15 -38.5q0 -22 17.5 -36.5t43.5 -14.5q33 0 58.5 14t39.5 38.5t14 54.5v97q0 29 -22 47.5t-57 18.5q-31 0 -55.5 -16.5t-35.5 -42.5l-62 31q17 43 61 68t94 25
q67 0 108.5 -36.5t41.5 -94.5v-255h-70v70l14 -3q-19 -34 -54.5 -54.5t-84.5 -20.5z" />
    <glyph glyph-name="guillemotleft" unicode="&#xab;" horiz-adv-x="540" 
d="M181 79l-152 190l152 190h90l-152 -190l152 -190h-90zM421 79l-152 190l152 190h90l-152 -190l152 -190h-90z" />
    <glyph glyph-name="logicalnot" unicode="&#xac;" horiz-adv-x="606" 
d="M478 40v173h-425v75h500v-248h-75z" />
    <glyph glyph-name="uni00AD" unicode="&#xad;" horiz-adv-x="498" 
d="M74 233v70h350v-70h-350z" />
    <glyph glyph-name="registered" unicode="&#xae;" horiz-adv-x="639" 
d="M320 272q-71 0 -129.5 34.5t-93 93t-34.5 128.5q0 71 34.5 129t93 92.5t129.5 34.5q53 0 99.5 -20t81.5 -55t55 -81.5t20 -99.5q0 -70 -34.5 -128.5t-92.5 -93t-129 -34.5zM320 330q55 0 99.5 26t71.5 71t27 101q0 55 -27 100t-71.5 71.5t-99.5 26.5q-56 0 -101 -26.5
t-71.5 -71.5t-26.5 -100t26.5 -100t71.5 -71.5t101 -26.5zM222 394v270h109q42 0 69 -22.5t27 -64.5q0 -27 -11.5 -46.5t-34.5 -30.5l63 -106h-65l-54 95h-45v-95h-58zM280 541h51q17 0 27 10.5t10 25.5t-10 25t-27 10h-51v-71z" />
    <glyph glyph-name="macron" unicode="&#xaf;" horiz-adv-x="440" 
d="M103 660v70h270v-70h-270z" />
    <glyph glyph-name="degree" unicode="&#xb0;" horiz-adv-x="482" 
d="M241 440q-45 0 -81.5 20.5t-57.5 56.5t-21 81t21 81t57.5 57t81.5 21q46 0 82 -21t57 -57t21 -81t-21 -81t-57 -56.5t-82 -20.5zM240 502q40 0 69 26.5t29 69.5q0 44 -29 70.5t-69 26.5t-68 -26.5t-28 -70.5q0 -43 28 -69.5t68 -26.5z" />
    <glyph glyph-name="plusminus" unicode="&#xb1;" horiz-adv-x="606" 
d="M266 145v173h-213v75h213v172h75v-172h212v-75h-212v-173h-75zM53 0v75h500v-75h-500z" />
    <glyph glyph-name="uni00B2" unicode="&#xb2;" horiz-adv-x="427" 
d="M40 223v55l143 154q42 45 67 73.5t36 50t11 45.5q0 40 -24 61.5t-62 21.5q-40 0 -68 -22.5t-39 -64.5l-68 19q9 43 34.5 73.5t62 47t78.5 16.5q49 0 85.5 -19t57 -51.5t20.5 -75.5q0 -49 -28 -90t-75 -91l-128 -137h242v-66h-345z" />
    <glyph glyph-name="uni00B3" unicode="&#xb3;" horiz-adv-x="436" 
d="M213 215q-41 0 -77.5 15t-62.5 42.5t-38 64.5l65 26q14 -37 44 -58.5t69 -21.5q47 0 76.5 27t29.5 75q0 47 -29.5 73.5t-76.5 26.5q-25 0 -46 -7l-17 35l138 166h-226v66h312v-63l-133 -162l-3 23q47 -1 82.5 -21t55.5 -55t20 -81q0 -49 -23.5 -87.5t-65 -61t-94.5 -22.5
z" />
    <glyph glyph-name="acute" unicode="&#xb4;" horiz-adv-x="352" 
d="M103 640l87 150h103l-114 -150h-76z" />
    <glyph glyph-name="uni00B5" unicode="&#xb5;" 
d="M66 -140v676h75v-329q0 -43 17.5 -75.5t49 -50.5t72.5 -18t73 18.5t50 53t18 82.5v319h75v-536h-75v102l11 -15q-21 -46 -65 -72.5t-100 -26.5q-42 0 -79 15.5t-64 42.5l17 21v-207h-75z" />
    <glyph glyph-name="paragraph" unicode="&#xb6;" horiz-adv-x="398" 
d="M208 -100v523q-45 0 -81 21.5t-57.5 58.5t-21.5 81q0 45 21.5 81.5t57.5 58t81 21.5h80v-845h-80z" />
    <glyph glyph-name="periodcentered" unicode="&#xb7;" horiz-adv-x="286" 
d="M103 213v110h80v-110h-80z" />
    <glyph glyph-name="cedilla" unicode="&#xb8;" horiz-adv-x="382" 
d="M207 -230q-29 0 -57.5 10t-46.5 27l21 53q15 -14 34.5 -22t38.5 -8q22 0 35.5 11.5t13.5 29.5q0 23 -23 36t-75 19l24 84h54l-13 -48q52 -11 78.5 -35.5t26.5 -60.5q0 -42 -31.5 -69t-79.5 -27z" />
    <glyph glyph-name="uni00B9" unicode="&#xb9;" horiz-adv-x="302" 
d="M120 223v455h-99v67h176v-522h-77z" />
    <glyph glyph-name="ordmasculine" unicode="&#xba;" horiz-adv-x="503" 
d="M252 361q-54 0 -99 25.5t-71.5 70t-26.5 101.5t26.5 101.5t71 70t99.5 25.5t99.5 -25.5t70.5 -70t26 -101.5q0 -58 -26.5 -102t-71 -69.5t-98.5 -25.5zM252 430q34 0 60.5 17t42.5 46t16 65q0 37 -16 65.5t-42.5 45.5t-60.5 17t-61.5 -17t-43 -45.5t-15.5 -65.5
q0 -36 15.5 -65t43 -46t61.5 -17z" />
    <glyph glyph-name="guillemotright" unicode="&#xbb;" horiz-adv-x="540" 
d="M269 79l152 190l-152 190h90l152 -190l-152 -190h-90zM29 79l152 190l-152 190h90l152 -190l-152 -190h-90z" />
    <glyph glyph-name="onequarter" unicode="&#xbc;" horiz-adv-x="891" 
d="M101 328v355h-80v62h152v-417h-72zM121 0l446 745h82l-446 -745h-82zM722 0v93h-195v60l191 264h74v-264h60v-60h-60v-93h-70zM580 127l-12 26h154v207l19 -6z" />
    <glyph glyph-name="onehalf" unicode="&#xbd;" horiz-adv-x="852" 
d="M101 328v355h-80v62h152v-417h-72zM121 0l446 745h82l-446 -745h-82zM531 0v54l114 120q31 32 49.5 53.5t27.5 38.5t9 34q0 28 -17.5 43.5t-44.5 15.5t-48 -16t-29 -47l-64 20q7 33 27.5 57.5t50.5 37.5t63 13q60 0 97 -33t37 -84q0 -40 -23 -72.5t-55 -67.5l-99 -105
h184v-62h-279z" />
    <glyph glyph-name="threequarters" unicode="&#xbe;" horiz-adv-x="982" 
d="M180 321q-51 0 -91.5 27.5t-53.5 73.5l62 23q11 -28 33 -43.5t50 -15.5q34 0 55.5 20t21.5 54t-21 53t-56 19q-10 0 -21.5 -2t-19.5 -6l-16 34l108 126h-173v61h254v-58l-107 -126l-1 25q56 -1 90.5 -35.5t34.5 -89.5q0 -39 -19.5 -71t-53 -50.5t-76.5 -18.5zM212 0
l446 745h82l-446 -745h-82zM813 0v93h-195v60l191 264h74v-264h60v-60h-60v-93h-70zM671 127l-12 26h154v207l19 -6z" />
    <glyph glyph-name="questiondown" unicode="&#xbf;" horiz-adv-x="499" 
d="M246 -221q-60 0 -105.5 25t-71 66t-25.5 88q0 45 19 80t48 64.5t58 58.5q33 33 58 69t25 82v10h80v-10q0 -45 -16 -79.5t-41.5 -62.5t-52.5 -54q-37 -36 -67.5 -72t-30.5 -86q0 -28 14.5 -53t41.5 -40.5t66 -15.5q56 0 96 35t51 93l71 -15q-9 -55 -39 -96t-76 -64
t-103 -23zM249 426v110h80v-110h-80z" />
    <glyph glyph-name="Agrave" unicode="&#xc0;" horiz-adv-x="652" 
d="M11 0l272 745h86l272 -745h-84l-64 182h-333l-65 -182h-84zM186 257h279l-151 428h24zM288 849l-114 150h103l87 -150h-76z" />
    <glyph glyph-name="Aacute" unicode="&#xc1;" horiz-adv-x="652" 
d="M11 0l272 745h86l272 -745h-84l-64 182h-333l-65 -182h-84zM186 257h279l-151 428h24zM288 849l87 150h103l-114 -150h-76z" />
    <glyph glyph-name="Acircumflex" unicode="&#xc2;" horiz-adv-x="652" 
d="M11 0l272 745h86l272 -745h-84l-64 182h-333l-65 -182h-84zM186 257h279l-151 428h24zM164 849l120 150h84l121 -150h-88l-75 91l-74 -91h-88z" />
    <glyph glyph-name="Atilde" unicode="&#xc3;" horiz-adv-x="652" 
d="M11 0l272 745h86l272 -745h-84l-64 182h-333l-65 -182h-84zM186 257h279l-151 428h24zM385 849q-26 0 -42 9.5t-27 22t-22.5 22t-28.5 9.5q-16 0 -26 -13t-10 -46h-62q0 60 26.5 91.5t71.5 31.5q26 0 42 -9.5t27 -22t22.5 -22t28.5 -9.5q18 0 28.5 15.5t10.5 43.5h61
q0 -55 -27 -89t-73 -34z" />
    <glyph glyph-name="Adieresis" unicode="&#xc4;" horiz-adv-x="652" 
d="M11 0l272 745h86l272 -745h-84l-64 182h-333l-65 -182h-84zM186 257h279l-151 428h24zM186 849v100h100v-100h-100zM366 849v100h100v-100h-100z" />
    <glyph glyph-name="Aring" unicode="&#xc5;" horiz-adv-x="652" 
d="M11 0l272 745h86l272 -745h-84l-64 182h-333l-65 -182h-84zM186 257h279l-151 428h24zM326 829q-44 0 -77 28.5t-33 78.5t32.5 79t77.5 29q44 0 77 -29t33 -79q0 -49 -33 -78t-77 -29zM326 883q22 0 37 14.5t15 38.5t-15 38.5t-37 14.5q-21 0 -36.5 -14t-15.5 -39
q0 -24 15 -38.5t37 -14.5z" />
    <glyph glyph-name="AE" unicode="&#xc6;" horiz-adv-x="985" 
d="M11 0l272 745h658v-75h-400v-259h380v-75h-380v-261h400v-75h-480v182h-301l-65 -182h-84zM186 257h275v413h-128z" />
    <glyph glyph-name="Ccedilla" unicode="&#xc7;" horiz-adv-x="781" 
d="M428 -12q-79 0 -145 28.5t-114.5 80t-75.5 121.5t-27 154t27 154t75.5 122t114.5 80.5t145 28.5q76 0 136.5 -27t102 -69.5t59.5 -89.5l-75 -33q-28 65 -85.5 104.5t-137.5 39.5q-82 0 -146 -39t-100 -108.5t-36 -162.5q0 -92 36 -162t100 -108.5t146 -38.5
q80 0 137.5 39t85.5 104l75 -33q-18 -46 -59.5 -88.5t-102 -69.5t-136.5 -27zM440 -230q-29 0 -57.5 10t-46.5 27l21 53q15 -14 34.5 -22t38.5 -8q22 0 35.5 11.5t13.5 29.5q0 23 -23 36t-75 19l24 84h54l-13 -48q52 -11 78.5 -35.5t26.5 -60.5q0 -42 -31.5 -69t-79.5 -27z
" />
    <glyph glyph-name="Egrave" unicode="&#xc8;" horiz-adv-x="612" 
d="M88 0v745h480v-75h-400v-259h380v-75h-380v-261h400v-75h-480zM290 849l-114 150h103l87 -150h-76z" />
    <glyph glyph-name="Eacute" unicode="&#xc9;" horiz-adv-x="612" 
d="M88 0v745h480v-75h-400v-259h380v-75h-380v-261h400v-75h-480zM290 849l87 150h103l-114 -150h-76z" />
    <glyph glyph-name="Ecircumflex" unicode="&#xca;" horiz-adv-x="612" 
d="M88 0v745h480v-75h-400v-259h380v-75h-380v-261h400v-75h-480zM166 849l120 150h84l121 -150h-88l-75 91l-74 -91h-88z" />
    <glyph glyph-name="Edieresis" unicode="&#xcb;" horiz-adv-x="612" 
d="M88 0v745h480v-75h-400v-259h380v-75h-380v-261h400v-75h-480zM188 849v100h100v-100h-100zM368 849v100h100v-100h-100z" />
    <glyph glyph-name="Igrave" unicode="&#xcc;" horiz-adv-x="256" 
d="M88 0v745h80v-745h-80zM90 849l-114 150h103l87 -150h-76z" />
    <glyph glyph-name="Iacute" unicode="&#xcd;" horiz-adv-x="256" 
d="M88 0v745h80v-745h-80zM90 849l87 150h103l-114 -150h-76z" />
    <glyph glyph-name="Icircumflex" unicode="&#xce;" horiz-adv-x="256" 
d="M88 0v745h80v-745h-80zM-34 849l120 150h84l121 -150h-88l-75 91l-74 -91h-88z" />
    <glyph glyph-name="Idieresis" unicode="&#xcf;" horiz-adv-x="256" 
d="M88 0v745h80v-745h-80zM-12 849v100h100v-100h-100zM168 849v100h100v-100h-100z" />
    <glyph glyph-name="Eth" unicode="&#xd0;" horiz-adv-x="742" 
d="M28 338v70h300v-70h-300zM88 0v745h245q111 0 193 -45.5t127 -129t45 -197.5q0 -113 -45 -197t-127 -130t-193 -46h-245zM168 75h165q86 0 149 36.5t97.5 103.5t34.5 158t-35 157.5t-98 103t-148 36.5h-165v-595z" />
    <glyph glyph-name="Ntilde" unicode="&#xd1;" horiz-adv-x="736" 
d="M88 0v745h70l437 -627h-27v627h80v-745h-70l-437 631h27v-631h-80zM427 849q-26 0 -42 9.5t-27 22t-22.5 22t-28.5 9.5q-16 0 -26 -13t-10 -46h-62q0 60 26.5 91.5t71.5 31.5q26 0 42 -9.5t27 -22t22.5 -22t28.5 -9.5q18 0 28.5 15.5t10.5 43.5h61q0 -55 -27 -89t-73 -34
z" />
    <glyph glyph-name="Ograve" unicode="&#xd2;" horiz-adv-x="878" 
d="M439 -12q-78 0 -145.5 28.5t-118.5 80t-80 122t-29 154.5t29 154.5t80 122t118.5 79.5t145.5 28t145.5 -28.5t118.5 -80t80 -121.5t29 -154t-29 -154.5t-80 -122t-118.5 -80t-145.5 -28.5zM439 63q65 0 118.5 24t92.5 67t60.5 99t21.5 120q0 63 -21.5 119t-60.5 99
t-92.5 67t-118.5 24t-118.5 -24t-92.5 -67t-60.5 -99t-21.5 -119q0 -64 21.5 -120t60.5 -99t93 -67t118 -24zM401 849l-114 150h103l87 -150h-76z" />
    <glyph glyph-name="Oacute" unicode="&#xd3;" horiz-adv-x="878" 
d="M439 -12q-78 0 -145.5 28.5t-118.5 80t-80 122t-29 154.5t29 154.5t80 122t118.5 79.5t145.5 28t145.5 -28.5t118.5 -80t80 -121.5t29 -154t-29 -154.5t-80 -122t-118.5 -80t-145.5 -28.5zM439 63q65 0 118.5 24t92.5 67t60.5 99t21.5 120q0 63 -21.5 119t-60.5 99
t-92.5 67t-118.5 24t-118.5 -24t-92.5 -67t-60.5 -99t-21.5 -119q0 -64 21.5 -120t60.5 -99t93 -67t118 -24zM401 849l87 150h103l-114 -150h-76z" />
    <glyph glyph-name="Ocircumflex" unicode="&#xd4;" horiz-adv-x="878" 
d="M439 -12q-78 0 -145.5 28.5t-118.5 80t-80 122t-29 154.5t29 154.5t80 122t118.5 79.5t145.5 28t145.5 -28.5t118.5 -80t80 -121.5t29 -154t-29 -154.5t-80 -122t-118.5 -80t-145.5 -28.5zM439 63q65 0 118.5 24t92.5 67t60.5 99t21.5 120q0 63 -21.5 119t-60.5 99
t-92.5 67t-118.5 24t-118.5 -24t-92.5 -67t-60.5 -99t-21.5 -119q0 -64 21.5 -120t60.5 -99t93 -67t118 -24zM277 849l120 150h84l121 -150h-88l-75 91l-74 -91h-88z" />
    <glyph glyph-name="Otilde" unicode="&#xd5;" horiz-adv-x="878" 
d="M439 -12q-78 0 -145.5 28.5t-118.5 80t-80 122t-29 154.5t29 154.5t80 122t118.5 79.5t145.5 28t145.5 -28.5t118.5 -80t80 -121.5t29 -154t-29 -154.5t-80 -122t-118.5 -80t-145.5 -28.5zM439 63q65 0 118.5 24t92.5 67t60.5 99t21.5 120q0 63 -21.5 119t-60.5 99
t-92.5 67t-118.5 24t-118.5 -24t-92.5 -67t-60.5 -99t-21.5 -119q0 -64 21.5 -120t60.5 -99t93 -67t118 -24zM498 849q-26 0 -42 9.5t-27 22t-22.5 22t-28.5 9.5q-16 0 -26 -13t-10 -46h-62q0 60 26.5 91.5t71.5 31.5q26 0 42 -9.5t27 -22t22.5 -22t28.5 -9.5
q18 0 28.5 15.5t10.5 43.5h61q0 -55 -27 -89t-73 -34z" />
    <glyph glyph-name="Odieresis" unicode="&#xd6;" horiz-adv-x="878" 
d="M439 -12q-78 0 -145.5 28.5t-118.5 80t-80 122t-29 154.5t29 154.5t80 122t118.5 79.5t145.5 28t145.5 -28.5t118.5 -80t80 -121.5t29 -154t-29 -154.5t-80 -122t-118.5 -80t-145.5 -28.5zM439 63q65 0 118.5 24t92.5 67t60.5 99t21.5 120q0 63 -21.5 119t-60.5 99
t-92.5 67t-118.5 24t-118.5 -24t-92.5 -67t-60.5 -99t-21.5 -119q0 -64 21.5 -120t60.5 -99t93 -67t118 -24zM299 849v100h100v-100h-100zM479 849v100h100v-100h-100z" />
    <glyph glyph-name="multiply" unicode="&#xd7;" horiz-adv-x="606" 
d="M138 0l-53 53l165 165l-164 164l53 53l164 -164l164 164l53 -53l-164 -164l165 -165l-53 -53l-165 165z" />
    <glyph glyph-name="Oslash" unicode="&#xd8;" horiz-adv-x="878" 
d="M82 0l610 745h104l-610 -745h-104zM439 -12q-78 0 -145.5 28.5t-118.5 80t-80 122t-29 154.5t29 154.5t80 122t118.5 79.5t145.5 28t145.5 -28.5t118.5 -80t80 -121.5t29 -154t-29 -154.5t-80 -122t-118.5 -80t-145.5 -28.5zM439 63q65 0 118.5 24t92.5 67t60.5 99
t21.5 120q0 63 -21.5 119t-60.5 99t-92.5 67t-118.5 24t-118.5 -24t-92.5 -67t-60.5 -99t-21.5 -119q0 -64 21.5 -120t60.5 -99t93 -67t118 -24z" />
    <glyph glyph-name="Ugrave" unicode="&#xd9;" horiz-adv-x="700" 
d="M350 -12q-79 0 -139 33t-93 90.5t-33 131.5v502h80v-502q0 -54 23.5 -94.5t65 -63t96.5 -22.5t96.5 22.5t65 63t23.5 94.5v502h80v-502q0 -74 -33 -131.5t-92.5 -90.5t-139.5 -33zM312 849l-114 150h103l87 -150h-76z" />
    <glyph glyph-name="Uacute" unicode="&#xda;" horiz-adv-x="700" 
d="M350 -12q-79 0 -139 33t-93 90.5t-33 131.5v502h80v-502q0 -54 23.5 -94.5t65 -63t96.5 -22.5t96.5 22.5t65 63t23.5 94.5v502h80v-502q0 -74 -33 -131.5t-92.5 -90.5t-139.5 -33zM312 849l87 150h103l-114 -150h-76z" />
    <glyph glyph-name="Ucircumflex" unicode="&#xdb;" horiz-adv-x="700" 
d="M350 -12q-79 0 -139 33t-93 90.5t-33 131.5v502h80v-502q0 -54 23.5 -94.5t65 -63t96.5 -22.5t96.5 22.5t65 63t23.5 94.5v502h80v-502q0 -74 -33 -131.5t-92.5 -90.5t-139.5 -33zM188 849l120 150h84l121 -150h-88l-75 91l-74 -91h-88z" />
    <glyph glyph-name="Udieresis" unicode="&#xdc;" horiz-adv-x="700" 
d="M350 -12q-79 0 -139 33t-93 90.5t-33 131.5v502h80v-502q0 -54 23.5 -94.5t65 -63t96.5 -22.5t96.5 22.5t65 63t23.5 94.5v502h80v-502q0 -74 -33 -131.5t-92.5 -90.5t-139.5 -33zM210 849v100h100v-100h-100zM390 849v100h100v-100h-100z" />
    <glyph glyph-name="Yacute" unicode="&#xdd;" horiz-adv-x="623" 
d="M272 0v346l-261 399h89l228 -347h-32l227 347h89l-260 -399v-346h-80zM274 849l87 150h103l-114 -150h-76z" />
    <glyph glyph-name="Thorn" unicode="&#xde;" horiz-adv-x="635" 
d="M80 0v745h80v-145h176q73 0 128 -28.5t85.5 -80t30.5 -119.5t-30.5 -119t-85 -79.5t-128.5 -28.5h-176v-145h-80zM160 220h180q48 0 84 18.5t56 53t20 81.5t-20 81t-56 52.5t-84 18.5h-180v-305z" />
    <glyph glyph-name="germandbls" unicode="&#xdf;" horiz-adv-x="603" 
d="M88 -150v690q0 67 28.5 115.5t78 75t112.5 26.5t110.5 -24t74 -66.5t26.5 -100.5q0 -64 -30 -112t-82 -65l-5 20q74 -27 110.5 -75t36.5 -119q0 -65 -29 -113.5t-82 -75t-125 -26.5h-59v70h59q71 0 113.5 40t42.5 105t-42.5 105t-113.5 40h-59v70h53q39 0 68.5 17
t46.5 46.5t17 67.5t-16.5 66t-46 44t-69.5 16q-41 0 -73.5 -18t-51 -51t-18.5 -78v-690h-75z" />
    <glyph glyph-name="agrave" unicode="&#xe0;" horiz-adv-x="572" 
d="M232 -12q-51 0 -91 19.5t-63 53.5t-23 78q0 42 18 76.5t56 58.5t97 34l210 35v-68l-192 -32q-58 -10 -83.5 -37t-25.5 -64q0 -36 28.5 -61t73.5 -25q55 0 96 23.5t64 63.5t23 89v136q0 48 -35 78t-91 30q-49 0 -86 -24.5t-55 -63.5l-68 37q15 34 47.5 62t74.5 44.5
t87 16.5q59 0 104.5 -23t71 -63.5t25.5 -93.5v-368h-75v107l11 -11q-14 -30 -43.5 -54.5t-69 -39t-86.5 -14.5zM256 640l-114 150h103l87 -150h-76z" />
    <glyph glyph-name="aacute" unicode="&#xe1;" horiz-adv-x="572" 
d="M232 -12q-51 0 -91 19.5t-63 53.5t-23 78q0 42 18 76.5t56 58.5t97 34l210 35v-68l-192 -32q-58 -10 -83.5 -37t-25.5 -64q0 -36 28.5 -61t73.5 -25q55 0 96 23.5t64 63.5t23 89v136q0 48 -35 78t-91 30q-49 0 -86 -24.5t-55 -63.5l-68 37q15 34 47.5 62t74.5 44.5
t87 16.5q59 0 104.5 -23t71 -63.5t25.5 -93.5v-368h-75v107l11 -11q-14 -30 -43.5 -54.5t-69 -39t-86.5 -14.5zM256 640l87 150h103l-114 -150h-76z" />
    <glyph glyph-name="acircumflex" unicode="&#xe2;" horiz-adv-x="572" 
d="M232 -12q-51 0 -91 19.5t-63 53.5t-23 78q0 42 18 76.5t56 58.5t97 34l210 35v-68l-192 -32q-58 -10 -83.5 -37t-25.5 -64q0 -36 28.5 -61t73.5 -25q55 0 96 23.5t64 63.5t23 89v136q0 48 -35 78t-91 30q-49 0 -86 -24.5t-55 -63.5l-68 37q15 34 47.5 62t74.5 44.5
t87 16.5q59 0 104.5 -23t71 -63.5t25.5 -93.5v-368h-75v107l11 -11q-14 -30 -43.5 -54.5t-69 -39t-86.5 -14.5zM132 640l120 150h84l121 -150h-88l-75 91l-74 -91h-88z" />
    <glyph glyph-name="atilde" unicode="&#xe3;" horiz-adv-x="572" 
d="M232 -12q-51 0 -91 19.5t-63 53.5t-23 78q0 42 18 76.5t56 58.5t97 34l210 35v-68l-192 -32q-58 -10 -83.5 -37t-25.5 -64q0 -36 28.5 -61t73.5 -25q55 0 96 23.5t64 63.5t23 89v136q0 48 -35 78t-91 30q-49 0 -86 -24.5t-55 -63.5l-68 37q15 34 47.5 62t74.5 44.5
t87 16.5q59 0 104.5 -23t71 -63.5t25.5 -93.5v-368h-75v107l11 -11q-14 -30 -43.5 -54.5t-69 -39t-86.5 -14.5zM353 640q-26 0 -42 9.5t-27 22t-22.5 22t-28.5 9.5q-16 0 -26 -13t-10 -46h-62q0 60 26.5 91.5t71.5 31.5q26 0 42 -9.5t27 -22t22.5 -22t28.5 -9.5
q18 0 28.5 15.5t10.5 43.5h61q0 -55 -27 -89t-73 -34z" />
    <glyph glyph-name="adieresis" unicode="&#xe4;" horiz-adv-x="572" 
d="M232 -12q-51 0 -91 19.5t-63 53.5t-23 78q0 42 18 76.5t56 58.5t97 34l210 35v-68l-192 -32q-58 -10 -83.5 -37t-25.5 -64q0 -36 28.5 -61t73.5 -25q55 0 96 23.5t64 63.5t23 89v136q0 48 -35 78t-91 30q-49 0 -86 -24.5t-55 -63.5l-68 37q15 34 47.5 62t74.5 44.5
t87 16.5q59 0 104.5 -23t71 -63.5t25.5 -93.5v-368h-75v107l11 -11q-14 -30 -43.5 -54.5t-69 -39t-86.5 -14.5zM154 640v100h100v-100h-100zM334 640v100h100v-100h-100z" />
    <glyph glyph-name="aring" unicode="&#xe5;" horiz-adv-x="572" 
d="M232 -12q-51 0 -91 19.5t-63 53.5t-23 78q0 42 18 76.5t56 58.5t97 34l210 35v-68l-192 -32q-58 -10 -83.5 -37t-25.5 -64q0 -36 28.5 -61t73.5 -25q55 0 96 23.5t64 63.5t23 89v136q0 48 -35 78t-91 30q-49 0 -86 -24.5t-55 -63.5l-68 37q15 34 47.5 62t74.5 44.5
t87 16.5q59 0 104.5 -23t71 -63.5t25.5 -93.5v-368h-75v107l11 -11q-14 -30 -43.5 -54.5t-69 -39t-86.5 -14.5zM294 620q-44 0 -77 28.5t-33 78.5t32.5 79t77.5 29q44 0 77 -29t33 -79q0 -49 -33 -78t-77 -29zM294 674q22 0 37 14.5t15 38.5t-15 38.5t-37 14.5
q-21 0 -36.5 -14t-15.5 -39q0 -24 15 -38.5t37 -14.5z" />
    <glyph glyph-name="ae" unicode="&#xe6;" horiz-adv-x="983" 
d="M232 -12q-51 0 -91 19.5t-63 53.5t-23 78q0 42 18 76.5t56 58.5t97 34l194 32v28q0 48 -35 78t-91 30q-49 0 -86 -24.5t-55 -63.5l-68 37q15 34 47.5 62t74.5 44.5t87 16.5q71 0 122.5 -33.5t70.5 -89.5l-22 1q33 56 89.5 89t126.5 33q58 0 103.5 -21.5t77.5 -58t49 -82
t17 -93.5q0 -10 -1 -22.5t-3 -25.5h-422q2 -57 28.5 -99t68.5 -65t90 -23q59 0 99 28t65 70l64 -34q-16 -36 -49 -66.5t-78.5 -49t-100.5 -18.5q-65 0 -119 28t-90 79l15 14v-109h-75v113l10 -18q-15 -30 -44 -54.5t-68.5 -38.5t-85.5 -14zM237 56q55 0 96 23.5t64 63.5
t23 89v40l-176 -29q-58 -10 -83.5 -37t-25.5 -64q0 -36 28.5 -61t73.5 -25zM504 315h343q0 48 -22.5 84.5t-60.5 57.5t-83 21q-43 0 -81.5 -20t-64 -56.5t-31.5 -86.5z" />
    <glyph glyph-name="ccedilla" unicode="&#xe7;" horiz-adv-x="600" 
d="M322 -12q-79 0 -139 37t-94 100.5t-34 143.5t34 143t94 99.5t139 36.5q50 0 94 -18t78 -48.5t51 -70.5l-68 -35q-20 43 -61 70t-94 27t-95.5 -26.5t-67 -73t-24.5 -105.5q0 -58 24.5 -104.5t67 -73.5t95.5 -27t93.5 27t61.5 72l68 -37q-17 -39 -51 -70t-78 -49t-94 -18z
M334 -230q-29 0 -57.5 10t-46.5 27l21 53q15 -14 34.5 -22t38.5 -8q22 0 35.5 11.5t13.5 29.5q0 23 -23 36t-75 19l24 84h54l-13 -48q52 -11 78.5 -35.5t26.5 -60.5q0 -42 -31.5 -69t-79.5 -27z" />
    <glyph glyph-name="egrave" unicode="&#xe8;" horiz-adv-x="615" 
d="M321 -12q-75 0 -135.5 36.5t-95.5 100.5t-35 145t34 143.5t92.5 98.5t131.5 36q58 0 103.5 -21.5t77.5 -58t49 -82t17 -93.5q0 -10 -1 -22.5t-3 -25.5h-453v70h410l-36 -30q9 55 -12.5 98.5t-61.5 69t-90 25.5t-92.5 -26t-66.5 -72.5t-19 -110.5q-5 -64 20.5 -111.5
t70 -73.5t95.5 -26q59 0 99 28t65 70l64 -34q-16 -36 -49 -66.5t-78.5 -49t-100.5 -18.5zM270 640l-114 150h103l87 -150h-76z" />
    <glyph glyph-name="eacute" unicode="&#xe9;" horiz-adv-x="615" 
d="M321 -12q-75 0 -135.5 36.5t-95.5 100.5t-35 145t34 143.5t92.5 98.5t131.5 36q58 0 103.5 -21.5t77.5 -58t49 -82t17 -93.5q0 -10 -1 -22.5t-3 -25.5h-453v70h410l-36 -30q9 55 -12.5 98.5t-61.5 69t-90 25.5t-92.5 -26t-66.5 -72.5t-19 -110.5q-5 -64 20.5 -111.5
t70 -73.5t95.5 -26q59 0 99 28t65 70l64 -34q-16 -36 -49 -66.5t-78.5 -49t-100.5 -18.5zM270 640l87 150h103l-114 -150h-76z" />
    <glyph glyph-name="ecircumflex" unicode="&#xea;" horiz-adv-x="615" 
d="M321 -12q-75 0 -135.5 36.5t-95.5 100.5t-35 145t34 143.5t92.5 98.5t131.5 36q58 0 103.5 -21.5t77.5 -58t49 -82t17 -93.5q0 -10 -1 -22.5t-3 -25.5h-453v70h410l-36 -30q9 55 -12.5 98.5t-61.5 69t-90 25.5t-92.5 -26t-66.5 -72.5t-19 -110.5q-5 -64 20.5 -111.5
t70 -73.5t95.5 -26q59 0 99 28t65 70l64 -34q-16 -36 -49 -66.5t-78.5 -49t-100.5 -18.5zM146 640l120 150h84l121 -150h-88l-75 91l-74 -91h-88z" />
    <glyph glyph-name="edieresis" unicode="&#xeb;" horiz-adv-x="615" 
d="M321 -12q-75 0 -135.5 36.5t-95.5 100.5t-35 145t34 143.5t92.5 98.5t131.5 36q58 0 103.5 -21.5t77.5 -58t49 -82t17 -93.5q0 -10 -1 -22.5t-3 -25.5h-453v70h410l-36 -30q9 55 -12.5 98.5t-61.5 69t-90 25.5t-92.5 -26t-66.5 -72.5t-19 -110.5q-5 -64 20.5 -111.5
t70 -73.5t95.5 -26q59 0 99 28t65 70l64 -34q-16 -36 -49 -66.5t-78.5 -49t-100.5 -18.5zM168 640v100h100v-100h-100zM348 640v100h100v-100h-100z" />
    <glyph glyph-name="igrave" unicode="&#xec;" horiz-adv-x="199" 
d="M62 0v536h75v-536h-75zM61 640l-114 150h103l87 -150h-76z" />
    <glyph glyph-name="iacute" unicode="&#xed;" horiz-adv-x="199" 
d="M62 0v536h75v-536h-75zM61 640l87 150h103l-114 -150h-76z" />
    <glyph glyph-name="icircumflex" unicode="&#xee;" horiz-adv-x="199" 
d="M62 0v536h75v-536h-75zM-63 640l120 150h84l121 -150h-88l-75 91l-74 -91h-88z" />
    <glyph glyph-name="idieresis" unicode="&#xef;" horiz-adv-x="199" 
d="M62 0v536h75v-536h-75zM-41 640v100h100v-100h-100zM139 640v100h100v-100h-100z" />
    <glyph glyph-name="eth" unicode="&#xf0;" horiz-adv-x="655" 
d="M334 -12q-60 0 -111 21t-88.5 58.5t-58.5 88t-21 109.5q0 78 35.5 140t97 97.5t139.5 35.5q35 0 72.5 -9t71.5 -30.5t57 -60.5l-20 -44q1 56 -14.5 106t-44 91t-68.5 71t-87 46.5t-99 16.5q-29 0 -59 -5t-60 -16l-16 67q72 24 138 24q80 0 144.5 -26.5t112.5 -73.5
t80.5 -108t48.5 -131t16 -142q0 -116 -36.5 -188t-97 -105t-132.5 -33zM328 63q54 0 97.5 27t69 73t25.5 103q0 55 -24.5 99.5t-67.5 71t-100 26.5q-56 0 -99.5 -26.5t-68.5 -71.5t-25 -101q0 -57 26.5 -102.5t70.5 -72t96 -26.5zM242 588v59l298 109v-60z" />
    <glyph glyph-name="ntilde" unicode="&#xf1;" 
d="M77 0v536h75v-104l-17 4q20 52 65.5 82t105.5 30q57 0 102.5 -26t72 -71.5t26.5 -102.5v-348h-75v319q0 49 -17.5 83t-49 52.5t-72.5 18.5t-73 -18.5t-50 -53t-18 -82.5v-319h-75zM346 640q-26 0 -42 9.5t-27 22t-22.5 22t-28.5 9.5q-16 0 -26 -13t-10 -46h-62
q0 60 26.5 91.5t71.5 31.5q26 0 42 -9.5t27 -22t22.5 -22t28.5 -9.5q18 0 28.5 15.5t10.5 43.5h61q0 -55 -27 -89t-73 -34z" />
    <glyph glyph-name="ograve" unicode="&#xf2;" horiz-adv-x="655" 
d="M328 -12q-76 0 -138 36.5t-98.5 100t-36.5 144.5q0 80 36 143t97.5 99.5t139.5 36.5t139.5 -36t97 -99t35.5 -144q0 -82 -37 -145.5t-98.5 -99.5t-136.5 -36zM328 63q54 0 97.5 27t69 74t25.5 105t-25.5 104t-69 73t-97.5 27t-97.5 -27t-69.5 -73t-26 -104t26 -105
t69.5 -74t97.5 -27zM290 640l-114 150h103l87 -150h-76z" />
    <glyph glyph-name="oacute" unicode="&#xf3;" horiz-adv-x="655" 
d="M328 -12q-76 0 -138 36.5t-98.5 100t-36.5 144.5q0 80 36 143t97.5 99.5t139.5 36.5t139.5 -36t97 -99t35.5 -144q0 -82 -37 -145.5t-98.5 -99.5t-136.5 -36zM328 63q54 0 97.5 27t69 74t25.5 105t-25.5 104t-69 73t-97.5 27t-97.5 -27t-69.5 -73t-26 -104t26 -105
t69.5 -74t97.5 -27zM290 640l87 150h103l-114 -150h-76z" />
    <glyph glyph-name="ocircumflex" unicode="&#xf4;" horiz-adv-x="655" 
d="M328 -12q-76 0 -138 36.5t-98.5 100t-36.5 144.5q0 80 36 143t97.5 99.5t139.5 36.5t139.5 -36t97 -99t35.5 -144q0 -82 -37 -145.5t-98.5 -99.5t-136.5 -36zM328 63q54 0 97.5 27t69 74t25.5 105t-25.5 104t-69 73t-97.5 27t-97.5 -27t-69.5 -73t-26 -104t26 -105
t69.5 -74t97.5 -27zM166 640l120 150h84l121 -150h-88l-75 91l-74 -91h-88z" />
    <glyph glyph-name="otilde" unicode="&#xf5;" horiz-adv-x="655" 
d="M328 -12q-76 0 -138 36.5t-98.5 100t-36.5 144.5q0 80 36 143t97.5 99.5t139.5 36.5t139.5 -36t97 -99t35.5 -144q0 -82 -37 -145.5t-98.5 -99.5t-136.5 -36zM328 63q54 0 97.5 27t69 74t25.5 105t-25.5 104t-69 73t-97.5 27t-97.5 -27t-69.5 -73t-26 -104t26 -105
t69.5 -74t97.5 -27zM387 640q-26 0 -42 9.5t-27 22t-22.5 22t-28.5 9.5q-16 0 -26 -13t-10 -46h-62q0 60 26.5 91.5t71.5 31.5q26 0 42 -9.5t27 -22t22.5 -22t28.5 -9.5q18 0 28.5 15.5t10.5 43.5h61q0 -55 -27 -89t-73 -34z" />
    <glyph glyph-name="odieresis" unicode="&#xf6;" horiz-adv-x="655" 
d="M328 -12q-76 0 -138 36.5t-98.5 100t-36.5 144.5q0 80 36 143t97.5 99.5t139.5 36.5t139.5 -36t97 -99t35.5 -144q0 -82 -37 -145.5t-98.5 -99.5t-136.5 -36zM328 63q54 0 97.5 27t69 74t25.5 105t-25.5 104t-69 73t-97.5 27t-97.5 -27t-69.5 -73t-26 -104t26 -105
t69.5 -74t97.5 -27zM188 640v100h100v-100h-100zM368 640v100h100v-100h-100z" />
    <glyph glyph-name="divide" unicode="&#xf7;" horiz-adv-x="606" 
d="M53 213v75h500v-75h-500zM263 0v103h80v-103h-80zM263 397v103h80v-103h-80z" />
    <glyph glyph-name="oslash" unicode="&#xf8;" horiz-adv-x="655" 
d="M41 0l469 536h105l-469 -536h-105zM328 -12q-76 0 -138 36.5t-98.5 100t-36.5 144.5q0 80 36 143t97.5 99.5t139.5 36.5t139.5 -36t97 -99t35.5 -144q0 -82 -37 -145.5t-98.5 -99.5t-136.5 -36zM328 63q54 0 97.5 27t69 74t25.5 105t-25.5 104t-69 73t-97.5 27t-97.5 -27
t-69.5 -73t-26 -104t26 -105t69.5 -74t97.5 -27z" />
    <glyph glyph-name="ugrave" unicode="&#xf9;" 
d="M267 -12q-56 0 -102 26.5t-72.5 74t-26.5 109.5v338h75v-329q0 -43 17.5 -75.5t49 -50.5t72.5 -18t73 18.5t50 53t18 82.5v319h75v-536h-75v104l17 -4q-19 -52 -65 -82t-106 -30zM249 640l-114 150h103l87 -150h-76z" />
    <glyph glyph-name="uacute" unicode="&#xfa;" 
d="M267 -12q-56 0 -102 26.5t-72.5 74t-26.5 109.5v338h75v-329q0 -43 17.5 -75.5t49 -50.5t72.5 -18t73 18.5t50 53t18 82.5v319h75v-536h-75v104l17 -4q-19 -52 -65 -82t-106 -30zM249 640l87 150h103l-114 -150h-76z" />
    <glyph glyph-name="ucircumflex" unicode="&#xfb;" 
d="M267 -12q-56 0 -102 26.5t-72.5 74t-26.5 109.5v338h75v-329q0 -43 17.5 -75.5t49 -50.5t72.5 -18t73 18.5t50 53t18 82.5v319h75v-536h-75v104l17 -4q-19 -52 -65 -82t-106 -30zM125 640l120 150h84l121 -150h-88l-75 91l-74 -91h-88z" />
    <glyph glyph-name="udieresis" unicode="&#xfc;" 
d="M267 -12q-56 0 -102 26.5t-72.5 74t-26.5 109.5v338h75v-329q0 -43 17.5 -75.5t49 -50.5t72.5 -18t73 18.5t50 53t18 82.5v319h75v-536h-75v104l17 -4q-19 -52 -65 -82t-106 -30zM147 640v100h100v-100h-100zM327 640v100h100v-100h-100z" />
    <glyph glyph-name="yacute" unicode="&#xfd;" horiz-adv-x="536" 
d="M88 -220q-16 0 -32.5 2.5t-32.5 8.5v70q10 -1 25.5 -3.5t31.5 -2.5q49 0 75 20.5t51 78.5l34 80l-2 -66l-227 568h81l186 -469h-21l185 469h83l-245 -604q-16 -39 -40.5 -74t-61.5 -56.5t-90 -21.5zM230 640l87 150h103l-114 -150h-76z" />
    <glyph glyph-name="thorn" unicode="&#xfe;" horiz-adv-x="667" 
d="M77 -200v945h75v-329l-12 21q32 51 85.5 81t122.5 30q76 0 135.5 -36.5t94 -99.5t34.5 -144q0 -80 -34.5 -143.5t-94 -100t-135.5 -36.5q-69 0 -124.5 31.5t-83.5 89.5l12 11v-320h-75zM344 63q54 0 96.5 27t67 73.5t24.5 104.5q0 59 -24.5 105t-67 73t-96.5 27
t-97.5 -27t-69 -73.5t-25.5 -104.5t25.5 -104.5t69 -73.5t97.5 -27z" />
    <glyph glyph-name="ydieresis" unicode="&#xff;" horiz-adv-x="536" 
d="M88 -220q-16 0 -32.5 2.5t-32.5 8.5v70q10 -1 25.5 -3.5t31.5 -2.5q49 0 75 20.5t51 78.5l34 80l-2 -66l-227 568h81l186 -469h-21l185 469h83l-245 -604q-16 -39 -40.5 -74t-61.5 -56.5t-90 -21.5zM128 640v100h100v-100h-100zM308 640v100h100v-100h-100z" />
    <glyph glyph-name="Amacron" unicode="&#x100;" horiz-adv-x="652" 
d="M11 0l272 745h86l272 -745h-84l-64 182h-333l-65 -182h-84zM186 257h279l-151 428h24zM191 869v70h270v-70h-270z" />
    <glyph glyph-name="amacron" unicode="&#x101;" horiz-adv-x="572" 
d="M232 -12q-51 0 -91 19.5t-63 53.5t-23 78q0 42 18 76.5t56 58.5t97 34l210 35v-68l-192 -32q-58 -10 -83.5 -37t-25.5 -64q0 -36 28.5 -61t73.5 -25q55 0 96 23.5t64 63.5t23 89v136q0 48 -35 78t-91 30q-49 0 -86 -24.5t-55 -63.5l-68 37q15 34 47.5 62t74.5 44.5
t87 16.5q59 0 104.5 -23t71 -63.5t25.5 -93.5v-368h-75v107l11 -11q-14 -30 -43.5 -54.5t-69 -39t-86.5 -14.5zM159 660v70h270v-70h-270z" />
    <glyph glyph-name="Abreve" unicode="&#x102;" horiz-adv-x="652" 
d="M11 0l272 745h86l272 -745h-84l-64 182h-333l-65 -182h-84zM186 257h279l-151 428h24zM326 849q-51 0 -86 19t-53.5 53t-18.5 78h72q0 -43 22.5 -66.5t63.5 -23.5t63.5 23.5t22.5 66.5h71q0 -44 -18 -78t-53 -53t-86 -19z" />
    <glyph glyph-name="abreve" unicode="&#x103;" horiz-adv-x="572" 
d="M232 -12q-51 0 -91 19.5t-63 53.5t-23 78q0 42 18 76.5t56 58.5t97 34l210 35v-68l-192 -32q-58 -10 -83.5 -37t-25.5 -64q0 -36 28.5 -61t73.5 -25q55 0 96 23.5t64 63.5t23 89v136q0 48 -35 78t-91 30q-49 0 -86 -24.5t-55 -63.5l-68 37q15 34 47.5 62t74.5 44.5
t87 16.5q59 0 104.5 -23t71 -63.5t25.5 -93.5v-368h-75v107l11 -11q-14 -30 -43.5 -54.5t-69 -39t-86.5 -14.5zM294 640q-51 0 -86 19t-53.5 53t-18.5 78h72q0 -43 22.5 -66.5t63.5 -23.5t63.5 23.5t22.5 66.5h71q0 -44 -18 -78t-53 -53t-86 -19z" />
    <glyph glyph-name="Aogonek" unicode="&#x104;" horiz-adv-x="652" 
d="M11 0l272 745h86l272 -745h-84l-64 182h-333l-65 -182h-84zM186 257h279l-151 428h24zM569 -230q-54 0 -85.5 28t-31.5 73q0 37 18.5 66.5t48.5 51t64 31.5h31v-20q-20 -5 -41 -22t-35 -42.5t-14 -56.5q0 -19 15 -34t40 -15q19 0 38.5 8t34.5 22l21 -53
q-18 -17 -46.5 -27t-57.5 -10z" />
    <glyph glyph-name="aogonek" unicode="&#x105;" horiz-adv-x="572" 
d="M232 -12q-51 0 -91 19.5t-63 53.5t-23 78q0 42 18 76.5t56 58.5t97 34l210 35v-68l-192 -32q-58 -10 -83.5 -37t-25.5 -64q0 -36 28.5 -61t73.5 -25q55 0 96 23.5t64 63.5t23 89v136q0 48 -35 78t-91 30q-49 0 -86 -24.5t-55 -63.5l-68 37q15 34 47.5 62t74.5 44.5
t87 16.5q59 0 104.5 -23t71 -63.5t25.5 -93.5v-368h-75v107l11 -11q-14 -30 -43.5 -54.5t-69 -39t-86.5 -14.5zM428 -230q-54 0 -85.5 28t-31.5 73q0 37 18.5 66.5t48.5 51t64 31.5h31v-20q-20 -5 -41 -22t-35 -42.5t-14 -56.5q0 -19 15 -34t40 -15q19 0 38.5 8t34.5 22
l21 -53q-18 -17 -46.5 -27t-57.5 -10z" />
    <glyph glyph-name="Cacute" unicode="&#x106;" horiz-adv-x="781" 
d="M428 -12q-79 0 -145 28.5t-114.5 80t-75.5 121.5t-27 154t27 154t75.5 122t114.5 80.5t145 28.5q76 0 136.5 -27t102 -69.5t59.5 -89.5l-75 -33q-28 65 -85.5 104.5t-137.5 39.5q-82 0 -146 -39t-100 -108.5t-36 -162.5q0 -92 36 -162t100 -108.5t146 -38.5
q80 0 137.5 39t85.5 104l75 -33q-18 -46 -59.5 -88.5t-102 -69.5t-136.5 -27zM390 849l87 150h103l-114 -150h-76z" />
    <glyph glyph-name="cacute" unicode="&#x107;" horiz-adv-x="600" 
d="M322 -12q-79 0 -139 37t-94 100.5t-34 143.5t34 143t94 99.5t139 36.5q50 0 94 -18t78 -48.5t51 -70.5l-68 -35q-20 43 -61 70t-94 27t-95.5 -26.5t-67 -73t-24.5 -105.5q0 -58 24.5 -104.5t67 -73.5t95.5 -27t93.5 27t61.5 72l68 -37q-17 -39 -51 -70t-78 -49t-94 -18z
M284 640l87 150h103l-114 -150h-76z" />
    <glyph glyph-name="Ccircumflex" unicode="&#x108;" horiz-adv-x="781" 
d="M428 -12q-79 0 -145 28.5t-114.5 80t-75.5 121.5t-27 154t27 154t75.5 122t114.5 80.5t145 28.5q76 0 136.5 -27t102 -69.5t59.5 -89.5l-75 -33q-28 65 -85.5 104.5t-137.5 39.5q-82 0 -146 -39t-100 -108.5t-36 -162.5q0 -92 36 -162t100 -108.5t146 -38.5
q80 0 137.5 39t85.5 104l75 -33q-18 -46 -59.5 -88.5t-102 -69.5t-136.5 -27zM266 849l120 150h84l121 -150h-88l-75 91l-74 -91h-88z" />
    <glyph glyph-name="ccircumflex" unicode="&#x109;" horiz-adv-x="600" 
d="M322 -12q-79 0 -139 37t-94 100.5t-34 143.5t34 143t94 99.5t139 36.5q50 0 94 -18t78 -48.5t51 -70.5l-68 -35q-20 43 -61 70t-94 27t-95.5 -26.5t-67 -73t-24.5 -105.5q0 -58 24.5 -104.5t67 -73.5t95.5 -27t93.5 27t61.5 72l68 -37q-17 -39 -51 -70t-78 -49t-94 -18z
M160 640l120 150h84l121 -150h-88l-75 91l-74 -91h-88z" />
    <glyph glyph-name="Cdotaccent" unicode="&#x10a;" horiz-adv-x="781" 
d="M428 -12q-79 0 -145 28.5t-114.5 80t-75.5 121.5t-27 154t27 154t75.5 122t114.5 80.5t145 28.5q76 0 136.5 -27t102 -69.5t59.5 -89.5l-75 -33q-28 65 -85.5 104.5t-137.5 39.5q-82 0 -146 -39t-100 -108.5t-36 -162.5q0 -92 36 -162t100 -108.5t146 -38.5
q80 0 137.5 39t85.5 104l75 -33q-18 -46 -59.5 -88.5t-102 -69.5t-136.5 -27zM378 849v100h100v-100h-100z" />
    <glyph glyph-name="cdotaccent" unicode="&#x10b;" horiz-adv-x="600" 
d="M322 -12q-79 0 -139 37t-94 100.5t-34 143.5t34 143t94 99.5t139 36.5q50 0 94 -18t78 -48.5t51 -70.5l-68 -35q-20 43 -61 70t-94 27t-95.5 -26.5t-67 -73t-24.5 -105.5q0 -58 24.5 -104.5t67 -73.5t95.5 -27t93.5 27t61.5 72l68 -37q-17 -39 -51 -70t-78 -49t-94 -18z
M272 640v100h100v-100h-100z" />
    <glyph glyph-name="Ccaron" unicode="&#x10c;" horiz-adv-x="781" 
d="M428 -12q-79 0 -145 28.5t-114.5 80t-75.5 121.5t-27 154t27 154t75.5 122t114.5 80.5t145 28.5q76 0 136.5 -27t102 -69.5t59.5 -89.5l-75 -33q-28 65 -85.5 104.5t-137.5 39.5q-82 0 -146 -39t-100 -108.5t-36 -162.5q0 -92 36 -162t100 -108.5t146 -38.5
q80 0 137.5 39t85.5 104l75 -33q-18 -46 -59.5 -88.5t-102 -69.5t-136.5 -27zM385 849l-120 150h88l74 -91l75 91h88l-121 -150h-84z" />
    <glyph glyph-name="ccaron" unicode="&#x10d;" horiz-adv-x="600" 
d="M322 -12q-79 0 -139 37t-94 100.5t-34 143.5t34 143t94 99.5t139 36.5q50 0 94 -18t78 -48.5t51 -70.5l-68 -35q-20 43 -61 70t-94 27t-95.5 -26.5t-67 -73t-24.5 -105.5q0 -58 24.5 -104.5t67 -73.5t95.5 -27t93.5 27t61.5 72l68 -37q-17 -39 -51 -70t-78 -49t-94 -18z
M279 640l-120 150h88l74 -91l75 91h88l-121 -150h-84z" />
    <glyph glyph-name="Dcaron" unicode="&#x10e;" horiz-adv-x="742" 
d="M88 0v745h245q111 0 193 -45.5t127 -129t45 -197.5q0 -113 -45 -197t-127 -130t-193 -46h-245zM168 75h165q86 0 149 36.5t97.5 103.5t34.5 158t-35 157.5t-98 103t-148 36.5h-165v-595zM339 849l-120 150h88l74 -91l75 91h88l-121 -150h-84z" />
    <glyph glyph-name="dcaron" unicode="&#x10f;" horiz-adv-x="791" 
d="M319 -12q-75 0 -135 36.5t-94.5 100t-34.5 143.5q0 81 34.5 144t94 99.5t135.5 36.5q69 0 123 -30t85 -81l-12 -21v341h75v-757h-75v120l12 -11q-28 -58 -83.5 -89.5t-124.5 -31.5zM323 63q54 0 97.5 27t69 73.5t25.5 104.5t-25.5 104.5t-69 73.5t-97.5 27q-53 0 -96 -27
t-67.5 -73t-24.5 -105q0 -58 24.5 -104.5t67 -73.5t96.5 -27zM667 590v167h85l-22 -167h-63z" />
    <glyph glyph-name="Dcroat" unicode="&#x110;" horiz-adv-x="742" 
d="M28 338v70h300v-70h-300zM88 0v745h245q111 0 193 -45.5t127 -129t45 -197.5q0 -113 -45 -197t-127 -130t-193 -46h-245zM168 75h165q86 0 149 36.5t97.5 103.5t34.5 158t-35 157.5t-98 103t-148 36.5h-165v-595z" />
    <glyph glyph-name="dcroat" unicode="&#x111;" horiz-adv-x="667" 
d="M413 605v70h280v-70h-280zM319 -12q-75 0 -135 36.5t-94.5 100t-34.5 143.5q0 81 34.5 144t94 99.5t135.5 36.5q69 0 123 -30t85 -81l-12 -21v341h75v-757h-75v120l12 -11q-28 -58 -83.5 -89.5t-124.5 -31.5zM323 63q54 0 97.5 27t69 73.5t25.5 104.5t-25.5 104.5
t-69 73.5t-97.5 27q-53 0 -96 -27t-67.5 -73t-24.5 -105q0 -58 24.5 -104.5t67 -73.5t96.5 -27z" />
    <glyph glyph-name="Emacron" unicode="&#x112;" horiz-adv-x="612" 
d="M88 0v745h480v-75h-400v-259h380v-75h-380v-261h400v-75h-480zM193 869v70h270v-70h-270z" />
    <glyph glyph-name="emacron" unicode="&#x113;" horiz-adv-x="615" 
d="M321 -12q-75 0 -135.5 36.5t-95.5 100.5t-35 145t34 143.5t92.5 98.5t131.5 36q58 0 103.5 -21.5t77.5 -58t49 -82t17 -93.5q0 -10 -1 -22.5t-3 -25.5h-453v70h410l-36 -30q9 55 -12.5 98.5t-61.5 69t-90 25.5t-92.5 -26t-66.5 -72.5t-19 -110.5q-5 -64 20.5 -111.5
t70 -73.5t95.5 -26q59 0 99 28t65 70l64 -34q-16 -36 -49 -66.5t-78.5 -49t-100.5 -18.5zM173 660v70h270v-70h-270z" />
    <glyph glyph-name="Ebreve" unicode="&#x114;" horiz-adv-x="612" 
d="M88 0v745h480v-75h-400v-259h380v-75h-380v-261h400v-75h-480zM328 849q-51 0 -86 19t-53.5 53t-18.5 78h72q0 -43 22.5 -66.5t63.5 -23.5t63.5 23.5t22.5 66.5h71q0 -44 -18 -78t-53 -53t-86 -19z" />
    <glyph glyph-name="ebreve" unicode="&#x115;" horiz-adv-x="615" 
d="M321 -12q-75 0 -135.5 36.5t-95.5 100.5t-35 145t34 143.5t92.5 98.5t131.5 36q58 0 103.5 -21.5t77.5 -58t49 -82t17 -93.5q0 -10 -1 -22.5t-3 -25.5h-453v70h410l-36 -30q9 55 -12.5 98.5t-61.5 69t-90 25.5t-92.5 -26t-66.5 -72.5t-19 -110.5q-5 -64 20.5 -111.5
t70 -73.5t95.5 -26q59 0 99 28t65 70l64 -34q-16 -36 -49 -66.5t-78.5 -49t-100.5 -18.5zM308 640q-51 0 -86 19t-53.5 53t-18.5 78h72q0 -43 22.5 -66.5t63.5 -23.5t63.5 23.5t22.5 66.5h71q0 -44 -18 -78t-53 -53t-86 -19z" />
    <glyph glyph-name="Edotaccent" unicode="&#x116;" horiz-adv-x="612" 
d="M88 0v745h480v-75h-400v-259h380v-75h-380v-261h400v-75h-480zM278 849v100h100v-100h-100z" />
    <glyph glyph-name="edotaccent" unicode="&#x117;" horiz-adv-x="615" 
d="M321 -12q-75 0 -135.5 36.5t-95.5 100.5t-35 145t34 143.5t92.5 98.5t131.5 36q58 0 103.5 -21.5t77.5 -58t49 -82t17 -93.5q0 -10 -1 -22.5t-3 -25.5h-453v70h410l-36 -30q9 55 -12.5 98.5t-61.5 69t-90 25.5t-92.5 -26t-66.5 -72.5t-19 -110.5q-5 -64 20.5 -111.5
t70 -73.5t95.5 -26q59 0 99 28t65 70l64 -34q-16 -36 -49 -66.5t-78.5 -49t-100.5 -18.5zM258 640v100h100v-100h-100z" />
    <glyph glyph-name="Eogonek" unicode="&#x118;" horiz-adv-x="612" 
d="M88 0v745h480v-75h-400v-259h380v-75h-380v-261h400v-75h-480zM438 -230q-54 0 -85.5 28t-31.5 73q0 37 18.5 66.5t48.5 51t64 31.5h31v-20q-20 -5 -41 -22t-35 -42.5t-14 -56.5q0 -19 15 -34t40 -15q19 0 38.5 8t34.5 22l21 -53q-18 -17 -46.5 -27t-57.5 -10z" />
    <glyph glyph-name="eogonek" unicode="&#x119;" horiz-adv-x="615" 
d="M321 -12q-75 0 -135.5 36.5t-95.5 100.5t-35 145t34 143.5t92.5 98.5t131.5 36q58 0 103.5 -21.5t77.5 -58t49 -82t17 -93.5q0 -10 -1 -22.5t-3 -25.5h-453v70h410l-36 -30q9 55 -12.5 98.5t-61.5 69t-90 25.5t-92.5 -26t-66.5 -72.5t-19 -110.5q-5 -64 20.5 -111.5
t70 -73.5t95.5 -26q59 0 99 28t65 70l64 -34q-16 -36 -49 -66.5t-78.5 -49t-100.5 -18.5zM291 -230q-54 0 -85.5 28t-31.5 73q0 37 18.5 66.5t48.5 51t64 31.5h31v-20q-20 -5 -41 -22t-35 -42.5t-14 -56.5q0 -19 15 -34t40 -15q19 0 38.5 8t34.5 22l21 -53
q-18 -17 -46.5 -27t-57.5 -10z" />
    <glyph glyph-name="Ecaron" unicode="&#x11a;" horiz-adv-x="612" 
d="M88 0v745h480v-75h-400v-259h380v-75h-380v-261h400v-75h-480zM285 849l-120 150h88l74 -91l75 91h88l-121 -150h-84z" />
    <glyph glyph-name="ecaron" unicode="&#x11b;" horiz-adv-x="615" 
d="M321 -12q-75 0 -135.5 36.5t-95.5 100.5t-35 145t34 143.5t92.5 98.5t131.5 36q58 0 103.5 -21.5t77.5 -58t49 -82t17 -93.5q0 -10 -1 -22.5t-3 -25.5h-453v70h410l-36 -30q9 55 -12.5 98.5t-61.5 69t-90 25.5t-92.5 -26t-66.5 -72.5t-19 -110.5q-5 -64 20.5 -111.5
t70 -73.5t95.5 -26q59 0 99 28t65 70l64 -34q-16 -36 -49 -66.5t-78.5 -49t-100.5 -18.5zM265 640l-120 150h88l74 -91l75 91h88l-121 -150h-84z" />
    <glyph glyph-name="Gcircumflex" unicode="&#x11c;" horiz-adv-x="821" 
d="M428 -12q-79 0 -145 28.5t-114.5 80t-75.5 121.5t-27 154t27 154t75.5 122t114.5 80.5t145 28.5q76 0 136.5 -27t102 -69.5t59.5 -89.5l-72 -35q-28 68 -86 107t-140 39t-146 -39t-100 -108.5t-36 -162.5q0 -92 36 -162t100 -108.5t146 -38.5q73 0 131.5 32t92.5 87.5
t34 127.5v41l36 -36h-294v70h338v-62q0 -73 -26 -134.5t-72 -106.5t-107.5 -69.5t-132.5 -24.5zM249 849l120 150h84l121 -150h-88l-75 91l-74 -91h-88z" />
    <glyph glyph-name="gcircumflex" unicode="&#x11d;" horiz-adv-x="662" 
d="M331 -220q-55 0 -101.5 17t-80 46.5t-51.5 68.5l69 37q16 -38 57 -66t105 -28q49 0 90 19t66 56t25 91v119l12 -11q-28 -58 -83 -89.5t-120 -31.5q-75 0 -135 36t-94.5 97.5t-34.5 136.5q0 76 34.5 137t94 97t135.5 36q65 0 118.5 -30t84.5 -81l-12 -21v120h75v-515
q0 -69 -32.5 -123.5t-90 -86t-131.5 -31.5zM323 83q52 0 94 26.5t67.5 71t25.5 97.5t-25.5 97.5t-67.5 71t-94 26.5q-53 0 -96 -26.5t-67.5 -70.5t-24.5 -98q0 -53 24.5 -97.5t67 -71t96.5 -26.5zM169 640l120 150h84l121 -150h-88l-75 91l-74 -91h-88z" />
    <glyph glyph-name="Gbreve" unicode="&#x11e;" horiz-adv-x="821" 
d="M428 -12q-79 0 -145 28.5t-114.5 80t-75.5 121.5t-27 154t27 154t75.5 122t114.5 80.5t145 28.5q76 0 136.5 -27t102 -69.5t59.5 -89.5l-72 -35q-28 68 -86 107t-140 39t-146 -39t-100 -108.5t-36 -162.5q0 -92 36 -162t100 -108.5t146 -38.5q73 0 131.5 32t92.5 87.5
t34 127.5v41l36 -36h-294v70h338v-62q0 -73 -26 -134.5t-72 -106.5t-107.5 -69.5t-132.5 -24.5zM411 849q-51 0 -86 19t-53.5 53t-18.5 78h72q0 -43 22.5 -66.5t63.5 -23.5t63.5 23.5t22.5 66.5h71q0 -44 -18 -78t-53 -53t-86 -19z" />
    <glyph glyph-name="gbreve" unicode="&#x11f;" horiz-adv-x="662" 
d="M331 -220q-55 0 -101.5 17t-80 46.5t-51.5 68.5l69 37q16 -38 57 -66t105 -28q49 0 90 19t66 56t25 91v119l12 -11q-28 -58 -83 -89.5t-120 -31.5q-75 0 -135 36t-94.5 97.5t-34.5 136.5q0 76 34.5 137t94 97t135.5 36q65 0 118.5 -30t84.5 -81l-12 -21v120h75v-515
q0 -69 -32.5 -123.5t-90 -86t-131.5 -31.5zM323 83q52 0 94 26.5t67.5 71t25.5 97.5t-25.5 97.5t-67.5 71t-94 26.5q-53 0 -96 -26.5t-67.5 -70.5t-24.5 -98q0 -53 24.5 -97.5t67 -71t96.5 -26.5zM331 640q-51 0 -86 19t-53.5 53t-18.5 78h72q0 -43 22.5 -66.5t63.5 -23.5
t63.5 23.5t22.5 66.5h71q0 -44 -18 -78t-53 -53t-86 -19z" />
    <glyph glyph-name="Gdotaccent" unicode="&#x120;" horiz-adv-x="821" 
d="M428 -12q-79 0 -145 28.5t-114.5 80t-75.5 121.5t-27 154t27 154t75.5 122t114.5 80.5t145 28.5q76 0 136.5 -27t102 -69.5t59.5 -89.5l-72 -35q-28 68 -86 107t-140 39t-146 -39t-100 -108.5t-36 -162.5q0 -92 36 -162t100 -108.5t146 -38.5q73 0 131.5 32t92.5 87.5
t34 127.5v41l36 -36h-294v70h338v-62q0 -73 -26 -134.5t-72 -106.5t-107.5 -69.5t-132.5 -24.5zM361 849v100h100v-100h-100z" />
    <glyph glyph-name="gdotaccent" unicode="&#x121;" horiz-adv-x="662" 
d="M331 -220q-55 0 -101.5 17t-80 46.5t-51.5 68.5l69 37q16 -38 57 -66t105 -28q49 0 90 19t66 56t25 91v119l12 -11q-28 -58 -83 -89.5t-120 -31.5q-75 0 -135 36t-94.5 97.5t-34.5 136.5q0 76 34.5 137t94 97t135.5 36q65 0 118.5 -30t84.5 -81l-12 -21v120h75v-515
q0 -69 -32.5 -123.5t-90 -86t-131.5 -31.5zM323 83q52 0 94 26.5t67.5 71t25.5 97.5t-25.5 97.5t-67.5 71t-94 26.5q-53 0 -96 -26.5t-67.5 -70.5t-24.5 -98q0 -53 24.5 -97.5t67 -71t96.5 -26.5zM281 640v100h100v-100h-100z" />
    <glyph glyph-name="uni0122" unicode="&#x122;" horiz-adv-x="821" 
d="M428 -12q-79 0 -145 28.5t-114.5 80t-75.5 121.5t-27 154t27 154t75.5 122t114.5 80.5t145 28.5q76 0 136.5 -27t102 -69.5t59.5 -89.5l-72 -35q-28 68 -86 107t-140 39t-146 -39t-100 -108.5t-36 -162.5q0 -92 36 -162t100 -108.5t146 -38.5q73 0 131.5 32t92.5 87.5
t34 127.5v41l36 -36h-294v70h338v-62q0 -73 -26 -134.5t-72 -106.5t-107.5 -69.5t-132.5 -24.5zM322 -240l44 170h90l-65 -170h-69z" />
    <glyph glyph-name="uni0123" unicode="&#x123;" horiz-adv-x="662" 
d="M331 -220q-55 0 -101.5 17t-80 46.5t-51.5 68.5l69 37q16 -38 57 -66t105 -28q49 0 90 19t66 56t25 91v119l12 -11q-28 -58 -83 -89.5t-120 -31.5q-75 0 -135 36t-94.5 97.5t-34.5 136.5q0 76 34.5 137t94 97t135.5 36q65 0 118.5 -30t84.5 -81l-12 -21v120h75v-515
q0 -69 -32.5 -123.5t-90 -86t-131.5 -31.5zM323 83q52 0 94 26.5t67.5 71t25.5 97.5t-25.5 97.5t-67.5 71t-94 26.5q-53 0 -96 -26.5t-67.5 -70.5t-24.5 -98q0 -53 24.5 -97.5t67 -71t96.5 -26.5zM286 616l65 170h69l-44 -170h-90z" />
    <glyph glyph-name="Hcircumflex" unicode="&#x124;" horiz-adv-x="736" 
d="M88 0v745h80v-335h400v335h80v-745h-80v335h-400v-335h-80zM206 849l120 150h84l121 -150h-88l-75 91l-74 -91h-88z" />
    <glyph glyph-name="hcircumflex" unicode="&#x125;" 
d="M77 0v757h75v-325l-17 4q20 52 65.5 82t105.5 30q57 0 102.5 -26t72 -71.5t26.5 -102.5v-348h-75v319q0 49 -18 83t-49.5 52.5t-71.5 18.5t-72 -18.5t-50.5 -53t-18.5 -82.5v-319h-75zM-47 849l120 150h84l121 -150h-88l-75 91l-74 -91h-88z" />
    <glyph glyph-name="Hbar" unicode="&#x126;" horiz-adv-x="736" 
d="M0 558v75h736v-75h-736zM88 0v745h80v-335h400v335h80v-745h-80v335h-400v-335h-80z" />
    <glyph glyph-name="hbar" unicode="&#x127;" 
d="M-25 605v70h280v-70h-280zM77 0v757h75v-325l-17 4q20 52 65.5 82t105.5 30q57 0 102.5 -26t72 -71.5t26.5 -102.5v-348h-75v319q0 49 -18 83t-49.5 52.5t-71.5 18.5t-72 -18.5t-50.5 -53t-18.5 -82.5v-319h-75z" />
    <glyph glyph-name="Itilde" unicode="&#x128;" horiz-adv-x="256" 
d="M88 0v745h80v-745h-80zM187 849q-26 0 -42 9.5t-27 22t-22.5 22t-28.5 9.5q-16 0 -26 -13t-10 -46h-62q0 60 26.5 91.5t71.5 31.5q26 0 42 -9.5t27 -22t22.5 -22t28.5 -9.5q18 0 28.5 15.5t10.5 43.5h61q0 -55 -27 -89t-73 -34z" />
    <glyph glyph-name="itilde" unicode="&#x129;" horiz-adv-x="199" 
d="M62 0v536h75v-536h-75zM158 640q-26 0 -42 9.5t-27 22t-22.5 22t-28.5 9.5q-16 0 -26 -13t-10 -46h-62q0 60 26.5 91.5t71.5 31.5q26 0 42 -9.5t27 -22t22.5 -22t28.5 -9.5q18 0 28.5 15.5t10.5 43.5h61q0 -55 -27 -89t-73 -34z" />
    <glyph glyph-name="Imacron" unicode="&#x12a;" horiz-adv-x="256" 
d="M88 0v745h80v-745h-80zM-7 869v70h270v-70h-270z" />
    <glyph glyph-name="imacron" unicode="&#x12b;" horiz-adv-x="199" 
d="M62 0v536h75v-536h-75zM-36 660v70h270v-70h-270z" />
    <glyph glyph-name="Ibreve" unicode="&#x12c;" horiz-adv-x="256" 
d="M88 0v745h80v-745h-80zM128 849q-51 0 -86 19t-53.5 53t-18.5 78h72q0 -43 22.5 -66.5t63.5 -23.5t63.5 23.5t22.5 66.5h71q0 -44 -18 -78t-53 -53t-86 -19z" />
    <glyph glyph-name="ibreve" unicode="&#x12d;" horiz-adv-x="199" 
d="M62 0v536h75v-536h-75zM99 640q-51 0 -86 19t-53.5 53t-18.5 78h72q0 -43 22.5 -66.5t63.5 -23.5t63.5 23.5t22.5 66.5h71q0 -44 -18 -78t-53 -53t-86 -19z" />
    <glyph glyph-name="Iogonek" unicode="&#x12e;" horiz-adv-x="256" 
d="M88 0v745h80v-745h-80zM108 -230q-54 0 -85.5 28t-31.5 73q0 37 18.5 66.5t48.5 51t64 31.5h31v-20q-20 -5 -41 -22t-35 -42.5t-14 -56.5q0 -19 15 -34t40 -15q19 0 38.5 8t34.5 22l21 -53q-18 -17 -46.5 -27t-57.5 -10z" />
    <glyph glyph-name="iogonek" unicode="&#x12f;" horiz-adv-x="199" 
d="M62 0v536h75v-536h-75zM49 640v100h100v-100h-100zM90 -230q-54 0 -85.5 28t-31.5 73q0 37 18.5 66.5t48.5 51t64 31.5h31v-20q-20 -5 -41 -22t-35 -42.5t-14 -56.5q0 -19 15 -34t40 -15q19 0 38.5 8t34.5 22l21 -53q-18 -17 -46.5 -27t-57.5 -10z" />
    <glyph glyph-name="Idotaccent" unicode="&#x130;" horiz-adv-x="256" 
d="M88 0v745h80v-745h-80zM78 849v100h100v-100h-100z" />
    <glyph glyph-name="dotlessi" unicode="&#x131;" horiz-adv-x="199" 
d="M62 0v536h75v-536h-75z" />
    <glyph glyph-name="Jcircumflex" unicode="&#x134;" horiz-adv-x="383" 
d="M55 0v80h40q56 0 88 33.5t32 91.5v540h80v-540q0 -63 -24.5 -109t-69.5 -71t-106 -25h-40zM93 849l120 150h84l121 -150h-88l-75 91l-74 -91h-88z" />
    <glyph glyph-name="jcircumflex" unicode="&#x135;" horiz-adv-x="229" 
d="M-23 -220q-7 0 -19.5 1t-20.5 3v69q21 -3 42 -3q41 0 69.5 25t28.5 75v586h75v-586q0 -55 -24 -93t-63.5 -57.5t-87.5 -19.5zM-47 640l120 150h84l121 -150h-88l-75 91l-74 -91h-88z" />
    <glyph glyph-name="uni0136" unicode="&#x136;" horiz-adv-x="654" 
d="M88 0v745h80v-435l-18 9l375 426h100l-301 -342l4 57l315 -460h-96l-254 367l-125 -142v-225h-80zM238 -240l44 170h90l-65 -170h-69z" />
    <glyph glyph-name="uni0137" unicode="&#x137;" horiz-adv-x="548" 
d="M77 0v757h75v-530l-32 5l301 304h97l-210 -215l229 -321h-90l-215 297l48 -4l-153 -158l25 62v-197h-75zM185 -240l44 170h90l-65 -170h-69z" />
    <glyph glyph-name="kgreenlandic" unicode="&#x138;" horiz-adv-x="548" 
d="M447 0l-179 249v70l146 217h91l-169 -251l201 -285h-90zM77 0v536h75v-536h-75zM119 247v75h203v-75h-203z" />
    <glyph glyph-name="Lacute" unicode="&#x139;" horiz-adv-x="531" 
d="M88 0v745h80v-670h330v-75h-410zM90 849l87 150h103l-114 -150h-76z" />
    <glyph glyph-name="lacute" unicode="&#x13a;" horiz-adv-x="229" 
d="M77 0v757h75v-757h-75zM77 849l87 150h103l-114 -150h-76z" />
    <glyph glyph-name="uni013B" unicode="&#x13b;" horiz-adv-x="531" 
d="M88 0v745h80v-670h330v-75h-410zM204 -240l44 170h90l-65 -170h-69z" />
    <glyph glyph-name="uni013C" unicode="&#x13c;" horiz-adv-x="229" 
d="M77 0v757h75v-757h-75zM26 -240l44 170h90l-65 -170h-69z" />
    <glyph glyph-name="Lcaron" unicode="&#x13d;" horiz-adv-x="531" 
d="M88 0v745h80v-670h330v-75h-410zM333 590v167h85l-22 -167h-63z" />
    <glyph glyph-name="lcaron" unicode="&#x13e;" horiz-adv-x="353" 
d="M77 0v757h75v-757h-75zM229 590v167h85l-22 -167h-63z" />
    <glyph glyph-name="Ldot" unicode="&#x13f;" horiz-adv-x="531" 
d="M334 315q-25 0 -41.5 16.5t-16.5 41.5q0 24 16.5 40.5t41.5 16.5q24 0 40.5 -16.5t16.5 -40.5q0 -25 -16.5 -41.5t-40.5 -16.5zM88 0v745h80v-670h330v-75h-410z" />
    <glyph glyph-name="ldot" unicode="&#x140;" horiz-adv-x="376" 
d="M280 315q-25 0 -41.5 16.5t-16.5 41.5q0 24 16.5 40.5t41.5 16.5q24 0 40.5 -16.5t16.5 -40.5q0 -25 -16.5 -41.5t-40.5 -16.5zM77 0v757h75v-757h-75z" />
    <glyph glyph-name="Lslash" unicode="&#x141;" horiz-adv-x="609" 
d="M44 232v82l324 200v-82zM166 0v745h80v-670h330v-75h-410z" />
    <glyph glyph-name="lslash" unicode="&#x142;" horiz-adv-x="337" 
d="M38 270v82l260 161v-82zM131 0v757h75v-757h-75z" />
    <glyph glyph-name="Nacute" unicode="&#x143;" horiz-adv-x="736" 
d="M88 0v745h70l437 -627h-27v627h80v-745h-70l-437 631h27v-631h-80zM330 849l87 150h103l-114 -150h-76z" />
    <glyph glyph-name="nacute" unicode="&#x144;" 
d="M77 0v536h75v-104l-17 4q20 52 65.5 82t105.5 30q57 0 102.5 -26t72 -71.5t26.5 -102.5v-348h-75v319q0 49 -17.5 83t-49 52.5t-72.5 18.5t-73 -18.5t-50 -53t-18 -82.5v-319h-75zM249 640l87 150h103l-114 -150h-76z" />
    <glyph glyph-name="uni0145" unicode="&#x145;" horiz-adv-x="736" 
d="M88 0v745h70l437 -627h-27v627h80v-745h-70l-437 631h27v-631h-80zM279 -240l44 170h90l-65 -170h-69z" />
    <glyph glyph-name="uni0146" unicode="&#x146;" 
d="M77 0v536h75v-104l-17 4q20 52 65.5 82t105.5 30q57 0 102.5 -26t72 -71.5t26.5 -102.5v-348h-75v319q0 49 -17.5 83t-49 52.5t-72.5 18.5t-73 -18.5t-50 -53t-18 -82.5v-319h-75zM198 -240l44 170h90l-65 -170h-69z" />
    <glyph glyph-name="Ncaron" unicode="&#x147;" horiz-adv-x="736" 
d="M88 0v745h70l437 -627h-27v627h80v-745h-70l-437 631h27v-631h-80zM325 849l-120 150h88l74 -91l75 91h88l-121 -150h-84z" />
    <glyph glyph-name="ncaron" unicode="&#x148;" 
d="M77 0v536h75v-104l-17 4q20 52 65.5 82t105.5 30q57 0 102.5 -26t72 -71.5t26.5 -102.5v-348h-75v319q0 49 -17.5 83t-49 52.5t-72.5 18.5t-73 -18.5t-50 -53t-18 -82.5v-319h-75zM244 640l-120 150h88l74 -91l75 91h88l-121 -150h-84z" />
    <glyph glyph-name="Eng" unicode="&#x14a;" horiz-adv-x="736" 
d="M473 -220q-7 0 -19.5 1t-20.5 3v74q21 -3 42 -3q41 0 67 22.5t26 72.5v99l20 -66l-440 639l20 6v-628h-80v745h70l431 -618l-21 -6v624h80v-795q0 -55 -24 -93t-63.5 -57.5t-87.5 -19.5z" />
    <glyph glyph-name="eng" unicode="&#x14b;" horiz-adv-x="600" 
d="M320 -220q-7 0 -19.5 1t-20.5 3v69q21 -3 42 -3q41 0 69.5 25t28.5 75v369q0 49 -17.5 83t-49 52.5t-72.5 18.5t-73 -18.5t-50 -53t-18 -82.5v-319h-75v536h75v-104l-17 4q20 52 65.5 82t105.5 30q57 0 102.5 -26t72 -71.5t26.5 -102.5v-398q0 -55 -24 -93t-63.5 -57.5
t-87.5 -19.5z" />
    <glyph glyph-name="Omacron" unicode="&#x14c;" horiz-adv-x="878" 
d="M439 -12q-78 0 -145.5 28.5t-118.5 80t-80 122t-29 154.5t29 154.5t80 122t118.5 79.5t145.5 28t145.5 -28.5t118.5 -80t80 -121.5t29 -154t-29 -154.5t-80 -122t-118.5 -80t-145.5 -28.5zM439 63q65 0 118.5 24t92.5 67t60.5 99t21.5 120q0 63 -21.5 119t-60.5 99
t-92.5 67t-118.5 24t-118.5 -24t-92.5 -67t-60.5 -99t-21.5 -119q0 -64 21.5 -120t60.5 -99t93 -67t118 -24zM304 869v70h270v-70h-270z" />
    <glyph glyph-name="omacron" unicode="&#x14d;" horiz-adv-x="655" 
d="M328 -12q-76 0 -138 36.5t-98.5 100t-36.5 144.5q0 80 36 143t97.5 99.5t139.5 36.5t139.5 -36t97 -99t35.5 -144q0 -82 -37 -145.5t-98.5 -99.5t-136.5 -36zM328 63q54 0 97.5 27t69 74t25.5 105t-25.5 104t-69 73t-97.5 27t-97.5 -27t-69.5 -73t-26 -104t26 -105
t69.5 -74t97.5 -27zM193 660v70h270v-70h-270z" />
    <glyph glyph-name="Obreve" unicode="&#x14e;" horiz-adv-x="878" 
d="M439 -12q-78 0 -145.5 28.5t-118.5 80t-80 122t-29 154.5t29 154.5t80 122t118.5 79.5t145.5 28t145.5 -28.5t118.5 -80t80 -121.5t29 -154t-29 -154.5t-80 -122t-118.5 -80t-145.5 -28.5zM439 63q65 0 118.5 24t92.5 67t60.5 99t21.5 120q0 63 -21.5 119t-60.5 99
t-92.5 67t-118.5 24t-118.5 -24t-92.5 -67t-60.5 -99t-21.5 -119q0 -64 21.5 -120t60.5 -99t93 -67t118 -24zM439 849q-51 0 -86 19t-53.5 53t-18.5 78h72q0 -43 22.5 -66.5t63.5 -23.5t63.5 23.5t22.5 66.5h71q0 -44 -18 -78t-53 -53t-86 -19z" />
    <glyph glyph-name="obreve" unicode="&#x14f;" horiz-adv-x="655" 
d="M328 -12q-76 0 -138 36.5t-98.5 100t-36.5 144.5q0 80 36 143t97.5 99.5t139.5 36.5t139.5 -36t97 -99t35.5 -144q0 -82 -37 -145.5t-98.5 -99.5t-136.5 -36zM328 63q54 0 97.5 27t69 74t25.5 105t-25.5 104t-69 73t-97.5 27t-97.5 -27t-69.5 -73t-26 -104t26 -105
t69.5 -74t97.5 -27zM328 640q-51 0 -86 19t-53.5 53t-18.5 78h72q0 -43 22.5 -66.5t63.5 -23.5t63.5 23.5t22.5 66.5h71q0 -44 -18 -78t-53 -53t-86 -19z" />
    <glyph glyph-name="Ohungarumlaut" unicode="&#x150;" horiz-adv-x="878" 
d="M439 -12q-78 0 -145.5 28.5t-118.5 80t-80 122t-29 154.5t29 154.5t80 122t118.5 79.5t145.5 28t145.5 -28.5t118.5 -80t80 -121.5t29 -154t-29 -154.5t-80 -122t-118.5 -80t-145.5 -28.5zM439 63q65 0 118.5 24t92.5 67t60.5 99t21.5 120q0 63 -21.5 119t-60.5 99
t-92.5 67t-118.5 24t-118.5 -24t-92.5 -67t-60.5 -99t-21.5 -119q0 -64 21.5 -120t60.5 -99t93 -67t118 -24zM326 849l57 150h93l-84 -150h-66zM486 849l57 150h93l-84 -150h-66z" />
    <glyph glyph-name="ohungarumlaut" unicode="&#x151;" horiz-adv-x="655" 
d="M328 -12q-76 0 -138 36.5t-98.5 100t-36.5 144.5q0 80 36 143t97.5 99.5t139.5 36.5t139.5 -36t97 -99t35.5 -144q0 -82 -37 -145.5t-98.5 -99.5t-136.5 -36zM328 63q54 0 97.5 27t69 74t25.5 105t-25.5 104t-69 73t-97.5 27t-97.5 -27t-69.5 -73t-26 -104t26 -105
t69.5 -74t97.5 -27zM215 640l57 150h93l-84 -150h-66zM375 640l57 150h93l-84 -150h-66z" />
    <glyph glyph-name="OE" unicode="&#x152;" horiz-adv-x="1261" 
d="M439 -12q-78 0 -145.5 28.5t-118.5 80t-80 122t-29 154.5t29 154.5t80 122t118.5 79.5t145.5 28q65 0 123.5 -20.5t107 -58t81.5 -89.5l-14 -16v172h480v-75h-400v-259h380v-75h-380v-261h400v-75h-480v172l14 -16q-33 -52 -81.5 -89.5t-107 -58t-123.5 -20.5zM439 63
q65 0 118.5 24t92.5 67t60.5 99t21.5 120q0 63 -21.5 119t-60.5 99t-92.5 67t-118.5 24t-118.5 -24t-92.5 -67t-60.5 -99t-21.5 -119q0 -64 21.5 -120t60.5 -99t93 -67t118 -24z" />
    <glyph glyph-name="oe" unicode="&#x153;" horiz-adv-x="1085" 
d="M328 -12q-76 0 -138 36.5t-98.5 100t-36.5 144.5q0 80 36 143t97.5 99.5t139.5 36.5q55 0 102.5 -19t84 -53t57.5 -80l-22 -1q21 47 55.5 81.5t80 53t97.5 18.5q58 0 103.5 -21.5t77.5 -58t49 -82t17 -93.5q0 -10 -1 -22.5t-3 -25.5h-422q2 -57 28.5 -99t68.5 -65t90 -23
q59 0 99 28t65 70l64 -34q-16 -36 -49 -66.5t-78.5 -49t-100.5 -18.5q-81 0 -144.5 42.5t-95.5 113.5h22q-22 -48 -59 -83t-84.5 -54t-101.5 -19zM328 63q54 0 97.5 27t69 74t25.5 105t-25.5 104t-69 73t-97.5 27t-97.5 -27t-69.5 -73t-26 -104t26 -105t69.5 -74t97.5 -27z
M606 315h343q0 48 -22.5 84.5t-60.5 57.5t-83 21q-43 0 -81.5 -20t-64 -56.5t-31.5 -86.5z" />
    <glyph glyph-name="Racute" unicode="&#x154;" horiz-adv-x="641" 
d="M88 0v745h256q73 0 128 -28.5t85.5 -80t30.5 -119.5q0 -79 -41.5 -135t-112.5 -79l174 -303h-94l-182 321l54 -31h-218v-290h-80zM168 365h180q48 0 84 18.5t56 53t20 81.5t-20 81t-56 52.5t-84 18.5h-180v-305zM277 849l87 150h103l-114 -150h-76z" />
    <glyph glyph-name="racute" unicode="&#x155;" horiz-adv-x="338" 
d="M77 0v536h75v-88l-10 13q19 38 57.5 60t93.5 22h34v-75h-47q-58 0 -93 -36t-35 -102v-330h-75zM164 640l87 150h103l-114 -150h-76z" />
    <glyph glyph-name="uni0156" unicode="&#x156;" horiz-adv-x="641" 
d="M88 0v745h256q73 0 128 -28.5t85.5 -80t30.5 -119.5q0 -79 -41.5 -135t-112.5 -79l174 -303h-94l-182 321l54 -31h-218v-290h-80zM168 365h180q48 0 84 18.5t56 53t20 81.5t-20 81t-56 52.5t-84 18.5h-180v-305zM226 -240l44 170h90l-65 -170h-69z" />
    <glyph glyph-name="uni0157" unicode="&#x157;" horiz-adv-x="338" 
d="M77 0v536h75v-88l-10 13q19 38 57.5 60t93.5 22h34v-75h-47q-58 0 -93 -36t-35 -102v-330h-75zM26 -240l44 170h90l-65 -170h-69z" />
    <glyph glyph-name="Rcaron" unicode="&#x158;" horiz-adv-x="641" 
d="M88 0v745h256q73 0 128 -28.5t85.5 -80t30.5 -119.5q0 -79 -41.5 -135t-112.5 -79l174 -303h-94l-182 321l54 -31h-218v-290h-80zM168 365h180q48 0 84 18.5t56 53t20 81.5t-20 81t-56 52.5t-84 18.5h-180v-305zM272 849l-120 150h88l74 -91l75 91h88l-121 -150h-84z" />
    <glyph glyph-name="rcaron" unicode="&#x159;" horiz-adv-x="338" 
d="M77 0v536h75v-88l-10 13q19 38 57.5 60t93.5 22h34v-75h-47q-58 0 -93 -36t-35 -102v-330h-75zM159 640l-120 150h88l74 -91l75 91h88l-121 -150h-84z" />
    <glyph glyph-name="Sacute" unicode="&#x15a;" horiz-adv-x="646" 
d="M339 -12q-71 0 -129 27t-98 72.5t-57 100.5l72 27q26 -76 81 -115.5t131 -39.5q48 0 84.5 15.5t56.5 43.5t20 65q0 55 -30 85t-86 46l-134 40q-79 23 -121.5 77t-42.5 123q0 59 29 104.5t79.5 71.5t114.5 26q67 0 120.5 -24.5t90.5 -64.5t53 -89l-70 -28
q-24 66 -74.5 100t-118.5 34q-43 0 -75.5 -15t-50.5 -43t-18 -66q0 -46 29 -82.5t89 -54.5l118 -35q88 -26 133 -75t45 -123q0 -60 -30.5 -105.5t-85 -71.5t-125.5 -26zM285 849l87 150h103l-114 -150h-76z" />
    <glyph glyph-name="sacute" unicode="&#x15b;" horiz-adv-x="509" 
d="M263 -12q-77 0 -135 39t-84 106l63 30q23 -49 64.5 -78t91.5 -29q48 0 81 23.5t33 61.5q0 28 -16 44.5t-37 25.5t-37 13l-77 22q-74 21 -107 59t-33 88q0 47 24 82t65 54t91 19q68 0 123.5 -35.5t78.5 -98.5l-64 -30q-20 45 -57.5 70.5t-83.5 25.5q-45 0 -72 -23t-27 -58
q0 -27 14 -43t32.5 -24t32.5 -12l89 -26q65 -19 101.5 -59t36.5 -94q0 -44 -24.5 -79t-67.5 -54.5t-99 -19.5zM217 640l87 150h103l-114 -150h-76z" />
    <glyph glyph-name="Scircumflex" unicode="&#x15c;" horiz-adv-x="646" 
d="M339 -12q-71 0 -129 27t-98 72.5t-57 100.5l72 27q26 -76 81 -115.5t131 -39.5q48 0 84.5 15.5t56.5 43.5t20 65q0 55 -30 85t-86 46l-134 40q-79 23 -121.5 77t-42.5 123q0 59 29 104.5t79.5 71.5t114.5 26q67 0 120.5 -24.5t90.5 -64.5t53 -89l-70 -28
q-24 66 -74.5 100t-118.5 34q-43 0 -75.5 -15t-50.5 -43t-18 -66q0 -46 29 -82.5t89 -54.5l118 -35q88 -26 133 -75t45 -123q0 -60 -30.5 -105.5t-85 -71.5t-125.5 -26zM161 849l120 150h84l121 -150h-88l-75 91l-74 -91h-88z" />
    <glyph glyph-name="scircumflex" unicode="&#x15d;" horiz-adv-x="509" 
d="M263 -12q-77 0 -135 39t-84 106l63 30q23 -49 64.5 -78t91.5 -29q48 0 81 23.5t33 61.5q0 28 -16 44.5t-37 25.5t-37 13l-77 22q-74 21 -107 59t-33 88q0 47 24 82t65 54t91 19q68 0 123.5 -35.5t78.5 -98.5l-64 -30q-20 45 -57.5 70.5t-83.5 25.5q-45 0 -72 -23t-27 -58
q0 -27 14 -43t32.5 -24t32.5 -12l89 -26q65 -19 101.5 -59t36.5 -94q0 -44 -24.5 -79t-67.5 -54.5t-99 -19.5zM93 640l120 150h84l121 -150h-88l-75 91l-74 -91h-88z" />
    <glyph glyph-name="Scedilla" unicode="&#x15e;" horiz-adv-x="646" 
d="M339 -12q-71 0 -129 27t-98 72.5t-57 100.5l72 27q26 -76 81 -115.5t131 -39.5q48 0 84.5 15.5t56.5 43.5t20 65q0 55 -30 85t-86 46l-134 40q-79 23 -121.5 77t-42.5 123q0 59 29 104.5t79.5 71.5t114.5 26q67 0 120.5 -24.5t90.5 -64.5t53 -89l-70 -28
q-24 66 -74.5 100t-118.5 34q-43 0 -75.5 -15t-50.5 -43t-18 -66q0 -46 29 -82.5t89 -54.5l118 -35q88 -26 133 -75t45 -123q0 -60 -30.5 -105.5t-85 -71.5t-125.5 -26zM351 -230q-29 0 -57.5 10t-46.5 27l21 53q15 -14 34.5 -22t38.5 -8q22 0 35.5 11.5t13.5 29.5
q0 23 -23 36t-75 19l24 84h54l-13 -48q52 -11 78.5 -35.5t26.5 -60.5q0 -42 -31.5 -69t-79.5 -27z" />
    <glyph glyph-name="scedilla" unicode="&#x15f;" horiz-adv-x="509" 
d="M263 -12q-77 0 -135 39t-84 106l63 30q23 -49 64.5 -78t91.5 -29q48 0 81 23.5t33 61.5q0 28 -16 44.5t-37 25.5t-37 13l-77 22q-74 21 -107 59t-33 88q0 47 24 82t65 54t91 19q68 0 123.5 -35.5t78.5 -98.5l-64 -30q-20 45 -57.5 70.5t-83.5 25.5q-45 0 -72 -23t-27 -58
q0 -27 14 -43t32.5 -24t32.5 -12l89 -26q65 -19 101.5 -59t36.5 -94q0 -44 -24.5 -79t-67.5 -54.5t-99 -19.5zM267 -230q-29 0 -57.5 10t-46.5 27l21 53q15 -14 34.5 -22t38.5 -8q22 0 35.5 11.5t13.5 29.5q0 23 -23 36t-75 19l24 84h54l-13 -48q52 -11 78.5 -35.5
t26.5 -60.5q0 -42 -31.5 -69t-79.5 -27z" />
    <glyph glyph-name="Scaron" unicode="&#x160;" horiz-adv-x="646" 
d="M339 -12q-71 0 -129 27t-98 72.5t-57 100.5l72 27q26 -76 81 -115.5t131 -39.5q48 0 84.5 15.5t56.5 43.5t20 65q0 55 -30 85t-86 46l-134 40q-79 23 -121.5 77t-42.5 123q0 59 29 104.5t79.5 71.5t114.5 26q67 0 120.5 -24.5t90.5 -64.5t53 -89l-70 -28
q-24 66 -74.5 100t-118.5 34q-43 0 -75.5 -15t-50.5 -43t-18 -66q0 -46 29 -82.5t89 -54.5l118 -35q88 -26 133 -75t45 -123q0 -60 -30.5 -105.5t-85 -71.5t-125.5 -26zM280 849l-120 150h88l74 -91l75 91h88l-121 -150h-84z" />
    <glyph glyph-name="scaron" unicode="&#x161;" horiz-adv-x="509" 
d="M263 -12q-77 0 -135 39t-84 106l63 30q23 -49 64.5 -78t91.5 -29q48 0 81 23.5t33 61.5q0 28 -16 44.5t-37 25.5t-37 13l-77 22q-74 21 -107 59t-33 88q0 47 24 82t65 54t91 19q68 0 123.5 -35.5t78.5 -98.5l-64 -30q-20 45 -57.5 70.5t-83.5 25.5q-45 0 -72 -23t-27 -58
q0 -27 14 -43t32.5 -24t32.5 -12l89 -26q65 -19 101.5 -59t36.5 -94q0 -44 -24.5 -79t-67.5 -54.5t-99 -19.5zM212 640l-120 150h88l74 -91l75 91h88l-121 -150h-84z" />
    <glyph glyph-name="uni0162" unicode="&#x162;" horiz-adv-x="512" 
d="M217 0v670h-206v75h490v-75h-204v-670h-80zM268 -230q-29 0 -57.5 10t-46.5 27l21 53q15 -14 34.5 -22t38.5 -8q22 0 35.5 11.5t13.5 29.5q0 23 -23 36t-75 19l24 84h54l-13 -48q52 -11 78.5 -35.5t26.5 -60.5q0 -42 -31.5 -69t-79.5 -27z" />
    <glyph glyph-name="uni0163" unicode="&#x163;" horiz-adv-x="388" 
d="M282 -6q-72 0 -111 42t-39 120v305h-99v75h25q34 0 54 22.5t20 56.5v45h75v-124h118v-75h-118v-305q0 -27 8 -47.5t27.5 -32.5t52.5 -12q8 0 19 1t19 2v-67q-12 -3 -27 -4.5t-24 -1.5zM286 -230q-29 0 -57.5 10t-46.5 27l21 53q15 -14 34.5 -22t38.5 -8q22 0 35.5 11.5
t13.5 29.5q0 23 -23 36t-75 19l24 84h54l-13 -48q52 -11 78.5 -35.5t26.5 -60.5q0 -42 -31.5 -69t-79.5 -27z" />
    <glyph glyph-name="Tcaron" unicode="&#x164;" horiz-adv-x="512" 
d="M217 0v670h-206v75h490v-75h-204v-670h-80zM213 849l-120 150h88l74 -91l75 91h88l-121 -150h-84z" />
    <glyph glyph-name="tcaron" unicode="&#x165;" horiz-adv-x="379" 
d="M282 -6q-72 0 -111 42t-39 120v305h-99v75h25q34 0 54 22.5t20 56.5v45h75v-124h118v-75h-118v-305q0 -27 8 -47.5t27.5 -32.5t52.5 -12q8 0 19 1t19 2v-67q-12 -3 -27 -4.5t-24 -1.5zM266 590v167h85l-22 -167h-63z" />
    <glyph glyph-name="Tbar" unicode="&#x166;" horiz-adv-x="512" 
d="M106 338v70h300v-70h-300zM217 0v670h-206v75h490v-75h-204v-670h-80z" />
    <glyph glyph-name="tbar" unicode="&#x167;" horiz-adv-x="388" 
d="M282 -6q-72 0 -111 42t-39 120v305h-99v75h25q34 0 54 22.5t20 56.5v45h75v-124h118v-75h-118v-305q0 -27 8 -47.5t27.5 -32.5t52.5 -12q8 0 19 1t19 2v-67q-12 -3 -27 -4.5t-24 -1.5zM24 231v75h292v-75h-292z" />
    <glyph glyph-name="Utilde" unicode="&#x168;" horiz-adv-x="700" 
d="M350 -12q-79 0 -139 33t-93 90.5t-33 131.5v502h80v-502q0 -54 23.5 -94.5t65 -63t96.5 -22.5t96.5 22.5t65 63t23.5 94.5v502h80v-502q0 -74 -33 -131.5t-92.5 -90.5t-139.5 -33zM409 849q-26 0 -42 9.5t-27 22t-22.5 22t-28.5 9.5q-16 0 -26 -13t-10 -46h-62
q0 60 26.5 91.5t71.5 31.5q26 0 42 -9.5t27 -22t22.5 -22t28.5 -9.5q18 0 28.5 15.5t10.5 43.5h61q0 -55 -27 -89t-73 -34z" />
    <glyph glyph-name="utilde" unicode="&#x169;" 
d="M267 -12q-56 0 -102 26.5t-72.5 74t-26.5 109.5v338h75v-329q0 -43 17.5 -75.5t49 -50.5t72.5 -18t73 18.5t50 53t18 82.5v319h75v-536h-75v104l17 -4q-19 -52 -65 -82t-106 -30zM346 640q-26 0 -42 9.5t-27 22t-22.5 22t-28.5 9.5q-16 0 -26 -13t-10 -46h-62
q0 60 26.5 91.5t71.5 31.5q26 0 42 -9.5t27 -22t22.5 -22t28.5 -9.5q18 0 28.5 15.5t10.5 43.5h61q0 -55 -27 -89t-73 -34z" />
    <glyph glyph-name="Umacron" unicode="&#x16a;" horiz-adv-x="700" 
d="M350 -12q-79 0 -139 33t-93 90.5t-33 131.5v502h80v-502q0 -54 23.5 -94.5t65 -63t96.5 -22.5t96.5 22.5t65 63t23.5 94.5v502h80v-502q0 -74 -33 -131.5t-92.5 -90.5t-139.5 -33zM215 869v70h270v-70h-270z" />
    <glyph glyph-name="umacron" unicode="&#x16b;" 
d="M267 -12q-56 0 -102 26.5t-72.5 74t-26.5 109.5v338h75v-329q0 -43 17.5 -75.5t49 -50.5t72.5 -18t73 18.5t50 53t18 82.5v319h75v-536h-75v104l17 -4q-19 -52 -65 -82t-106 -30zM152 660v70h270v-70h-270z" />
    <glyph glyph-name="Ubreve" unicode="&#x16c;" horiz-adv-x="700" 
d="M350 -12q-79 0 -139 33t-93 90.5t-33 131.5v502h80v-502q0 -54 23.5 -94.5t65 -63t96.5 -22.5t96.5 22.5t65 63t23.5 94.5v502h80v-502q0 -74 -33 -131.5t-92.5 -90.5t-139.5 -33zM350 849q-51 0 -86 19t-53.5 53t-18.5 78h72q0 -43 22.5 -66.5t63.5 -23.5t63.5 23.5
t22.5 66.5h71q0 -44 -18 -78t-53 -53t-86 -19z" />
    <glyph glyph-name="ubreve" unicode="&#x16d;" 
d="M267 -12q-56 0 -102 26.5t-72.5 74t-26.5 109.5v338h75v-329q0 -43 17.5 -75.5t49 -50.5t72.5 -18t73 18.5t50 53t18 82.5v319h75v-536h-75v104l17 -4q-19 -52 -65 -82t-106 -30zM287 640q-51 0 -86 19t-53.5 53t-18.5 78h72q0 -43 22.5 -66.5t63.5 -23.5t63.5 23.5
t22.5 66.5h71q0 -44 -18 -78t-53 -53t-86 -19z" />
    <glyph glyph-name="Uring" unicode="&#x16e;" horiz-adv-x="700" 
d="M350 -12q-79 0 -139 33t-93 90.5t-33 131.5v502h80v-502q0 -54 23.5 -94.5t65 -63t96.5 -22.5t96.5 22.5t65 63t23.5 94.5v502h80v-502q0 -74 -33 -131.5t-92.5 -90.5t-139.5 -33zM350 829q-44 0 -77 28.5t-33 78.5t32.5 79t77.5 29q44 0 77 -29t33 -79q0 -49 -33 -78
t-77 -29zM350 883q22 0 37 14.5t15 38.5t-15 38.5t-37 14.5q-21 0 -36.5 -14t-15.5 -39q0 -24 15 -38.5t37 -14.5z" />
    <glyph glyph-name="uring" unicode="&#x16f;" 
d="M267 -12q-56 0 -102 26.5t-72.5 74t-26.5 109.5v338h75v-329q0 -43 17.5 -75.5t49 -50.5t72.5 -18t73 18.5t50 53t18 82.5v319h75v-536h-75v104l17 -4q-19 -52 -65 -82t-106 -30zM287 620q-44 0 -77 28.5t-33 78.5t32.5 79t77.5 29q44 0 77 -29t33 -79q0 -49 -33 -78
t-77 -29zM287 674q22 0 37 14.5t15 38.5t-15 38.5t-37 14.5q-21 0 -36.5 -14t-15.5 -39q0 -24 15 -38.5t37 -14.5z" />
    <glyph glyph-name="Uhungarumlaut" unicode="&#x170;" horiz-adv-x="700" 
d="M350 -12q-79 0 -139 33t-93 90.5t-33 131.5v502h80v-502q0 -54 23.5 -94.5t65 -63t96.5 -22.5t96.5 22.5t65 63t23.5 94.5v502h80v-502q0 -74 -33 -131.5t-92.5 -90.5t-139.5 -33zM237 849l57 150h93l-84 -150h-66zM397 849l57 150h93l-84 -150h-66z" />
    <glyph glyph-name="uhungarumlaut" unicode="&#x171;" 
d="M267 -12q-56 0 -102 26.5t-72.5 74t-26.5 109.5v338h75v-329q0 -43 17.5 -75.5t49 -50.5t72.5 -18t73 18.5t50 53t18 82.5v319h75v-536h-75v104l17 -4q-19 -52 -65 -82t-106 -30zM174 640l57 150h93l-84 -150h-66zM334 640l57 150h93l-84 -150h-66z" />
    <glyph glyph-name="Uogonek" unicode="&#x172;" horiz-adv-x="700" 
d="M350 -12q-79 0 -139 33t-93 90.5t-33 131.5v502h80v-502q0 -54 23.5 -94.5t65 -63t96.5 -22.5t96.5 22.5t65 63t23.5 94.5v502h80v-502q0 -74 -33 -131.5t-92.5 -90.5t-139.5 -33zM340 -230q-54 0 -85.5 28t-31.5 73q0 37 18.5 66.5t48.5 51t64 31.5h31v-20
q-20 -5 -41 -22t-35 -42.5t-14 -56.5q0 -19 15 -34t40 -15q19 0 38.5 8t34.5 22l21 -53q-18 -17 -46.5 -27t-57.5 -10z" />
    <glyph glyph-name="uogonek" unicode="&#x173;" 
d="M267 -12q-56 0 -102 26.5t-72.5 74t-26.5 109.5v338h75v-329q0 -43 17.5 -75.5t49 -50.5t72.5 -18t73 18.5t50 53t18 82.5v319h75v-536h-75v104l17 -4q-19 -52 -65 -82t-106 -30zM429 -230q-54 0 -85.5 28t-31.5 73q0 37 18.5 66.5t48.5 51t64 31.5h31v-20
q-20 -5 -41 -22t-35 -42.5t-14 -56.5q0 -19 15 -34t40 -15q19 0 38.5 8t34.5 22l21 -53q-18 -17 -46.5 -27t-57.5 -10z" />
    <glyph glyph-name="Wcircumflex" unicode="&#x174;" horiz-adv-x="984" 
d="M225 0l-214 745h81l185 -667h-17l190 667h85l189 -667h-18l186 667h81l-214 -745h-85l-191 670h18l-191 -670h-85zM330 849l120 150h84l121 -150h-88l-75 91l-74 -91h-88z" />
    <glyph glyph-name="wcircumflex" unicode="&#x175;" horiz-adv-x="797" 
d="M195 0l-184 536h85l152 -469h-30l143 469h75l143 -469h-30l153 469h84l-184 -536h-75l-139 459h21l-139 -459h-75zM237 640l120 150h84l121 -150h-88l-75 91l-74 -91h-88z" />
    <glyph glyph-name="Ycircumflex" unicode="&#x176;" horiz-adv-x="623" 
d="M272 0v346l-261 399h89l228 -347h-32l227 347h89l-260 -399v-346h-80zM150 849l120 150h84l121 -150h-88l-75 91l-74 -91h-88z" />
    <glyph glyph-name="ycircumflex" unicode="&#x177;" horiz-adv-x="536" 
d="M88 -220q-16 0 -32.5 2.5t-32.5 8.5v70q10 -1 25.5 -3.5t31.5 -2.5q49 0 75 20.5t51 78.5l34 80l-2 -66l-227 568h81l186 -469h-21l185 469h83l-245 -604q-16 -39 -40.5 -74t-61.5 -56.5t-90 -21.5zM106 640l120 150h84l121 -150h-88l-75 91l-74 -91h-88z" />
    <glyph glyph-name="Ydieresis" unicode="&#x178;" horiz-adv-x="623" 
d="M272 0v346l-261 399h89l228 -347h-32l227 347h89l-260 -399v-346h-80zM172 849v100h100v-100h-100zM352 849v100h100v-100h-100z" />
    <glyph glyph-name="Zacute" unicode="&#x179;" horiz-adv-x="584" 
d="M22 0v54l426 616h-401v75h506v-54l-425 -616h434v-75h-540zM254 849l87 150h103l-114 -150h-76z" />
    <glyph glyph-name="zacute" unicode="&#x17a;" horiz-adv-x="449" 
d="M22 0v65l323 425l14 -29h-320v75h386v-65l-322 -425l-14 29h338v-75h-405zM181 640l87 150h103l-114 -150h-76z" />
    <glyph glyph-name="Zdotaccent" unicode="&#x17b;" horiz-adv-x="584" 
d="M22 0v54l426 616h-401v75h506v-54l-425 -616h434v-75h-540zM242 849v100h100v-100h-100z" />
    <glyph glyph-name="zdotaccent" unicode="&#x17c;" horiz-adv-x="449" 
d="M22 0v65l323 425l14 -29h-320v75h386v-65l-322 -425l-14 29h338v-75h-405zM169 640v100h100v-100h-100z" />
    <glyph glyph-name="Zcaron" unicode="&#x17d;" horiz-adv-x="584" 
d="M22 0v54l426 616h-401v75h506v-54l-425 -616h434v-75h-540zM249 849l-120 150h88l74 -91l75 91h88l-121 -150h-84z" />
    <glyph glyph-name="zcaron" unicode="&#x17e;" horiz-adv-x="449" 
d="M22 0v65l323 425l14 -29h-320v75h386v-65l-322 -425l-14 29h338v-75h-405zM176 640l-120 150h88l74 -91l75 91h88l-121 -150h-84z" />
    <glyph glyph-name="uni018F" unicode="&#x18f;" horiz-adv-x="832" 
d="M412 -12q-76 0 -139 26.5t-109.5 74.5t-72 111.5t-25.5 138.5q0 17 1.5 31t4.5 30h633v-75h-581l32 18q-1 -7 -1 -14v-14q0 -72 33.5 -129t92.5 -90t135 -33q59 0 109 21.5t86.5 62t56 98t18.5 128.5q1 65 -20 121t-60.5 98t-93.5 66t-118 24q-79 0 -142.5 -36.5
t-97.5 -100.5l-71 36q26 53 72.5 92.5t108 61.5t130.5 22q79 0 147 -29t118.5 -81.5t78.5 -123t28 -154.5q0 -77 -24.5 -145.5t-70.5 -121.5t-111.5 -83.5t-147.5 -30.5z" />
    <glyph glyph-name="florin" unicode="&#x192;" horiz-adv-x="487" 
d="M102 -12q-10 0 -23 1.5t-21 3.5v68q7 -1 19 -2t17 -1q48 0 80 24.5t32 88.5v169h-131v65h131v169q0 61 25 101.5t66 61t88 20.5q10 0 23 -1.5t21 -3.5v-68q-7 2 -19 2.5t-17 0.5q-48 0 -80 -24t-32 -89v-169h131v-65h-131v-169q0 -61 -25 -101.5t-66 -61t-88 -20.5z" />
    <glyph glyph-name="Ohorn" unicode="&#x1a0;" horiz-adv-x="878" 
d="M439 -12q-78 0 -145.5 28.5t-118.5 80t-80 122t-29 154.5t29 154.5t80 122t118.5 79.5t145.5 28h213q12 0 23.5 3.5t19 15t7.5 33.5q0 21 -6.5 40.5t-16.5 39.5h92q11 -19 18 -40.5t7 -47.5q0 -61 -35.5 -84.5t-94.5 -23.5h-38l10 8q53 -33 92 -82.5t60.5 -111.5
t21.5 -134q0 -84 -29 -154.5t-80 -122t-118.5 -80t-145.5 -28.5zM439 63q65 0 118.5 24t92.5 67t60.5 99t21.5 120q0 63 -21.5 119t-60.5 99t-92.5 67t-118.5 24t-118.5 -24t-92.5 -67t-60.5 -99t-21.5 -119q0 -64 21.5 -120t60.5 -99t93 -67t118 -24z" />
    <glyph glyph-name="ohorn" unicode="&#x1a1;" horiz-adv-x="655" 
d="M328 -12q-76 0 -138 36.5t-98.5 100t-36.5 144.5q0 80 36 143t97.5 99.5t139.5 36.5h113q13 0 24.5 4.5t19 16t7.5 32.5t-6.5 40.5t-15.5 39.5h74q9 -20 16 -41t7 -46q0 -46 -24 -72t-63 -32l3 11q54 -37 85.5 -97t31.5 -135q0 -82 -37 -145.5t-98.5 -99.5t-136.5 -36z
M328 63q54 0 97.5 27t69 74t25.5 105t-25.5 104t-69 73t-97.5 27t-97.5 -27t-69.5 -73t-26 -104t26 -105t69.5 -74t97.5 -27z" />
    <glyph glyph-name="Uhorn" unicode="&#x1af;" horiz-adv-x="700" 
d="M350 -12q-79 0 -139 33t-93 90.5t-33 131.5v502h80v-502q0 -54 23.5 -94.5t65 -63t96.5 -22.5t96.5 22.5t65 63t23.5 94.5v502h73q17 0 33.5 9t16.5 43q0 21 -6.5 40.5t-16.5 39.5h92q11 -19 18 -40.5t7 -47.5q0 -61 -35.5 -89.5t-94.5 -28.5h-7v-428q0 -74 -33 -131.5
t-92.5 -90.5t-139.5 -33z" />
    <glyph glyph-name="uhorn" unicode="&#x1b0;" horiz-adv-x="595" 
d="M267 -12q-56 0 -102 26.5t-72.5 74t-26.5 109.5v338h75v-329q0 -43 17.5 -75.5t49 -50.5t72.5 -18t73 18.5t50 53t18 82.5v319h38q20 0 35.5 10.5t15.5 42.5q0 21 -6.5 40.5t-15.5 39.5h74q9 -20 16 -41t7 -46q0 -52 -29 -78t-76 -29l16 24v-499h-75v66
q-24 -37 -64 -57.5t-90 -20.5z" />
    <glyph glyph-name="uni01C4" unicode="&#x1c4;" horiz-adv-x="1326" 
d="M88 0v745h245q111 0 193 -45.5t127 -129t45 -197.5q0 -113 -45 -197t-127 -130t-193 -46h-245zM168 75h165q86 0 149 36.5t97.5 103.5t34.5 158t-35 157.5t-98 103t-148 36.5h-165v-595zM764 0v54l426 616h-401v75h506v-54l-425 -616h434v-75h-540zM991 849l-120 150h88
l74 -91l75 91h88l-121 -150h-84z" />
    <glyph glyph-name="uni01C5" unicode="&#x1c5;" horiz-adv-x="1191" 
d="M88 0v745h245q111 0 193 -45.5t127 -129t45 -197.5q0 -113 -45 -197t-127 -130t-193 -46h-245zM168 75h165q86 0 149 36.5t97.5 103.5t34.5 158t-35 157.5t-98 103t-148 36.5h-165v-595zM764 0v65l323 425l14 -29h-320v75h386v-65l-322 -425l-14 29h338v-75h-405z
M918 640l-120 150h88l74 -91l75 91h88l-121 -150h-84z" />
    <glyph glyph-name="uni01C6" unicode="&#x1c6;" horiz-adv-x="1116" 
d="M319 -12q-75 0 -135 36.5t-94.5 100t-34.5 143.5q0 81 34.5 144t94 99.5t135.5 36.5q69 0 123 -30t85 -81l-12 -21v341h75v-757h-75v120l12 -11q-28 -58 -83.5 -89.5t-124.5 -31.5zM323 63q54 0 97.5 27t69 73.5t25.5 104.5t-25.5 104.5t-69 73.5t-97.5 27q-53 0 -96 -27
t-67.5 -73t-24.5 -105q0 -58 24.5 -104.5t67 -73.5t96.5 -27zM689 0v65l323 425l14 -29h-320v75h386v-65l-322 -425l-14 29h338v-75h-405zM843 640l-120 150h88l74 -91l75 91h88l-121 -150h-84z" />
    <glyph glyph-name="uni01C7" unicode="&#x1c7;" horiz-adv-x="1109" 
d="M88 0v745h80v-670h330v-75h-410zM808 -12q-88 0 -150 48t-82 127l74 22q17 -57 59.5 -89.5t98.5 -32.5q41 0 71 17t46 47t16 68v550h80v-550q0 -59 -26 -106t-73.5 -74t-113.5 -27z" />
    <glyph glyph-name="uni01C8" unicode="&#x1c8;" horiz-adv-x="760" 
d="M88 0v745h80v-670h330v-75h-410zM508 -220q-7 0 -19.5 1t-20.5 3v69q21 -3 42 -3q41 0 69.5 25t28.5 75v586h75v-586q0 -55 -24 -93t-63.5 -57.5t-87.5 -19.5zM608 635v110h75v-110h-75z" />
    <glyph glyph-name="uni01C9" unicode="&#x1c9;" horiz-adv-x="458" 
d="M77 0v757h75v-757h-75zM206 -220q-7 0 -19.5 1t-20.5 3v69q21 -3 42 -3q41 0 69.5 25t28.5 75v586h75v-586q0 -55 -24 -93t-63.5 -57.5t-87.5 -19.5zM306 635v110h75v-110h-75z" />
    <glyph glyph-name="uni01CA" unicode="&#x1ca;" horiz-adv-x="1119" 
d="M88 0v745h70l437 -627h-27v627h80v-745h-70l-437 631h27v-631h-80zM791 0v80h40q56 0 88 33.5t32 91.5v540h80v-540q0 -63 -24.5 -109t-69.5 -71t-106 -25h-40z" />
    <glyph glyph-name="uni01CB" unicode="&#x1cb;" horiz-adv-x="965" 
d="M88 0v745h70l437 -627h-27v627h80v-745h-70l-437 631h27v-631h-80zM713 -220q-7 0 -19.5 1t-20.5 3v69q21 -3 42 -3q41 0 69.5 25t28.5 75v586h75v-586q0 -55 -24 -93t-63.5 -57.5t-87.5 -19.5zM813 635v110h75v-110h-75z" />
    <glyph glyph-name="uni01CC" unicode="&#x1cc;" horiz-adv-x="802" 
d="M77 0v536h75v-104l-17 4q20 52 65.5 82t105.5 30q57 0 102.5 -26t72 -71.5t26.5 -102.5v-348h-75v319q0 49 -17.5 83t-49 52.5t-72.5 18.5t-73 -18.5t-50 -53t-18 -82.5v-319h-75zM550 -220q-7 0 -19.5 1t-20.5 3v69q21 -3 42 -3q41 0 69.5 25t28.5 75v586h75v-586
q0 -55 -24 -93t-63.5 -57.5t-87.5 -19.5zM650 635v110h75v-110h-75z" />
    <glyph glyph-name="Gcaron" unicode="&#x1e6;" horiz-adv-x="821" 
d="M428 -12q-79 0 -145 28.5t-114.5 80t-75.5 121.5t-27 154t27 154t75.5 122t114.5 80.5t145 28.5q76 0 136.5 -27t102 -69.5t59.5 -89.5l-72 -35q-28 68 -86 107t-140 39t-146 -39t-100 -108.5t-36 -162.5q0 -92 36 -162t100 -108.5t146 -38.5q73 0 131.5 32t92.5 87.5
t34 127.5v41l36 -36h-294v70h338v-62q0 -73 -26 -134.5t-72 -106.5t-107.5 -69.5t-132.5 -24.5zM368 849l-120 150h88l74 -91l75 91h88l-121 -150h-84z" />
    <glyph glyph-name="gcaron" unicode="&#x1e7;" horiz-adv-x="662" 
d="M331 -220q-55 0 -101.5 17t-80 46.5t-51.5 68.5l69 37q16 -38 57 -66t105 -28q49 0 90 19t66 56t25 91v119l12 -11q-28 -58 -83 -89.5t-120 -31.5q-75 0 -135 36t-94.5 97.5t-34.5 136.5q0 76 34.5 137t94 97t135.5 36q65 0 118.5 -30t84.5 -81l-12 -21v120h75v-515
q0 -69 -32.5 -123.5t-90 -86t-131.5 -31.5zM323 83q52 0 94 26.5t67.5 71t25.5 97.5t-25.5 97.5t-67.5 71t-94 26.5q-53 0 -96 -26.5t-67.5 -70.5t-24.5 -98q0 -53 24.5 -97.5t67 -71t96.5 -26.5zM288 640l-120 150h88l74 -91l75 91h88l-121 -150h-84z" />
    <glyph glyph-name="uni01EA" unicode="&#x1ea;" horiz-adv-x="878" 
d="M439 -12q-78 0 -145.5 28.5t-118.5 80t-80 122t-29 154.5t29 154.5t80 122t118.5 79.5t145.5 28t145.5 -28.5t118.5 -80t80 -121.5t29 -154t-29 -154.5t-80 -122t-118.5 -80t-145.5 -28.5zM439 63q65 0 118.5 24t92.5 67t60.5 99t21.5 120q0 63 -21.5 119t-60.5 99
t-92.5 67t-118.5 24t-118.5 -24t-92.5 -67t-60.5 -99t-21.5 -119q0 -64 21.5 -120t60.5 -99t93 -67t118 -24zM459 -230q-54 0 -85.5 28t-31.5 73q0 37 18.5 66.5t48.5 51t64 31.5h31v-20q-20 -5 -41 -22t-35 -42.5t-14 -56.5q0 -19 15 -34t40 -15q19 0 38.5 8t34.5 22
l21 -53q-18 -17 -46.5 -27t-57.5 -10z" />
    <glyph glyph-name="uni01EB" unicode="&#x1eb;" horiz-adv-x="655" 
d="M328 -12q-76 0 -138 36.5t-98.5 100t-36.5 144.5q0 80 36 143t97.5 99.5t139.5 36.5t139.5 -36t97 -99t35.5 -144q0 -82 -37 -145.5t-98.5 -99.5t-136.5 -36zM328 63q54 0 97.5 27t69 74t25.5 105t-25.5 104t-69 73t-97.5 27t-97.5 -27t-69.5 -73t-26 -104t26 -105
t69.5 -74t97.5 -27zM348 -230q-54 0 -85.5 28t-31.5 73q0 37 18.5 66.5t48.5 51t64 31.5h31v-20q-20 -5 -41 -22t-35 -42.5t-14 -56.5q0 -19 15 -34t40 -15q19 0 38.5 8t34.5 22l21 -53q-18 -17 -46.5 -27t-57.5 -10z" />
    <glyph glyph-name="Aringacute" unicode="&#x1fa;" horiz-adv-x="652" 
d="M11 0l272 745h86l272 -745h-84l-64 182h-333l-65 -182h-84zM186 257h279l-151 428h24zM326 829q-44 0 -77 28.5t-33 78.5t32.5 79t77.5 29q44 0 77 -29t33 -79q0 -49 -33 -78t-77 -29zM326 883q22 0 37 14.5t15 38.5t-15 38.5t-37 14.5q-21 0 -36.5 -14t-15.5 -39
q0 -24 15 -38.5t37 -14.5zM313 1001l62 128h103l-82 -128h-83z" />
    <glyph glyph-name="aringacute" unicode="&#x1fb;" horiz-adv-x="572" 
d="M232 -12q-51 0 -91 19.5t-63 53.5t-23 78q0 42 18 76.5t56 58.5t97 34l210 35v-68l-192 -32q-58 -10 -83.5 -37t-25.5 -64q0 -36 28.5 -61t73.5 -25q55 0 96 23.5t64 63.5t23 89v136q0 48 -35 78t-91 30q-49 0 -86 -24.5t-55 -63.5l-68 37q15 34 47.5 62t74.5 44.5
t87 16.5q59 0 104.5 -23t71 -63.5t25.5 -93.5v-368h-75v107l11 -11q-14 -30 -43.5 -54.5t-69 -39t-86.5 -14.5zM294 620q-44 0 -77 28.5t-33 78.5t32.5 79t77.5 29q44 0 77 -29t33 -79q0 -49 -33 -78t-77 -29zM294 674q22 0 37 14.5t15 38.5t-15 38.5t-37 14.5
q-21 0 -36.5 -14t-15.5 -39q0 -24 15 -38.5t37 -14.5zM281 792l62 128h103l-82 -128h-83z" />
    <glyph glyph-name="AEacute" unicode="&#x1fc;" horiz-adv-x="985" 
d="M11 0l272 745h658v-75h-400v-259h380v-75h-380v-261h400v-75h-480v182h-301l-65 -182h-84zM186 257h275v413h-128zM455 849l87 150h103l-114 -150h-76z" />
    <glyph glyph-name="aeacute" unicode="&#x1fd;" horiz-adv-x="983" 
d="M232 -12q-51 0 -91 19.5t-63 53.5t-23 78q0 42 18 76.5t56 58.5t97 34l194 32v28q0 48 -35 78t-91 30q-49 0 -86 -24.5t-55 -63.5l-68 37q15 34 47.5 62t74.5 44.5t87 16.5q71 0 122.5 -33.5t70.5 -89.5l-22 1q33 56 89.5 89t126.5 33q58 0 103.5 -21.5t77.5 -58t49 -82
t17 -93.5q0 -10 -1 -22.5t-3 -25.5h-422q2 -57 28.5 -99t68.5 -65t90 -23q59 0 99 28t65 70l64 -34q-16 -36 -49 -66.5t-78.5 -49t-100.5 -18.5q-65 0 -119 28t-90 79l15 14v-109h-75v113l10 -18q-15 -30 -44 -54.5t-68.5 -38.5t-85.5 -14zM237 56q55 0 96 23.5t64 63.5
t23 89v40l-176 -29q-58 -10 -83.5 -37t-25.5 -64q0 -36 28.5 -61t73.5 -25zM504 315h343q0 48 -22.5 84.5t-60.5 57.5t-83 21q-43 0 -81.5 -20t-64 -56.5t-31.5 -86.5zM454 640l87 150h103l-114 -150h-76z" />
    <glyph glyph-name="Oslashacute" unicode="&#x1fe;" horiz-adv-x="878" 
d="M82 0l610 745h104l-610 -745h-104zM439 -12q-78 0 -145.5 28.5t-118.5 80t-80 122t-29 154.5t29 154.5t80 122t118.5 79.5t145.5 28t145.5 -28.5t118.5 -80t80 -121.5t29 -154t-29 -154.5t-80 -122t-118.5 -80t-145.5 -28.5zM439 63q65 0 118.5 24t92.5 67t60.5 99
t21.5 120q0 63 -21.5 119t-60.5 99t-92.5 67t-118.5 24t-118.5 -24t-92.5 -67t-60.5 -99t-21.5 -119q0 -64 21.5 -120t60.5 -99t93 -67t118 -24zM401 849l87 150h103l-114 -150h-76z" />
    <glyph glyph-name="oslashacute" unicode="&#x1ff;" horiz-adv-x="655" 
d="M41 0l469 536h105l-469 -536h-105zM328 -12q-76 0 -138 36.5t-98.5 100t-36.5 144.5q0 80 36 143t97.5 99.5t139.5 36.5t139.5 -36t97 -99t35.5 -144q0 -82 -37 -145.5t-98.5 -99.5t-136.5 -36zM328 63q54 0 97.5 27t69 74t25.5 105t-25.5 104t-69 73t-97.5 27t-97.5 -27
t-69.5 -73t-26 -104t26 -105t69.5 -74t97.5 -27zM290 640l87 150h103l-114 -150h-76z" />
    <glyph glyph-name="uni0200" unicode="&#x200;" horiz-adv-x="652" 
d="M11 0l272 745h86l272 -745h-84l-64 182h-333l-65 -182h-84zM186 257h279l-151 428h24zM213 849l-114 150h93l87 -150h-66zM373 849l-114 150h93l87 -150h-66z" />
    <glyph glyph-name="uni0201" unicode="&#x201;" horiz-adv-x="572" 
d="M232 -12q-51 0 -91 19.5t-63 53.5t-23 78q0 42 18 76.5t56 58.5t97 34l210 35v-68l-192 -32q-58 -10 -83.5 -37t-25.5 -64q0 -36 28.5 -61t73.5 -25q55 0 96 23.5t64 63.5t23 89v136q0 48 -35 78t-91 30q-49 0 -86 -24.5t-55 -63.5l-68 37q15 34 47.5 62t74.5 44.5
t87 16.5q59 0 104.5 -23t71 -63.5t25.5 -93.5v-368h-75v107l11 -11q-14 -30 -43.5 -54.5t-69 -39t-86.5 -14.5zM181 640l-114 150h93l87 -150h-66zM341 640l-114 150h93l87 -150h-66z" />
    <glyph glyph-name="uni0202" unicode="&#x202;" horiz-adv-x="652" 
d="M11 0l272 745h86l272 -745h-84l-64 182h-333l-65 -182h-84zM186 257h279l-151 428h24zM168 849q0 44 18.5 78t53.5 53t86 19t86 -19t53 -52.5t18 -78.5h-71q0 43 -22.5 66.5t-63.5 23.5t-63.5 -23.5t-22.5 -66.5h-72z" />
    <glyph glyph-name="uni0203" unicode="&#x203;" horiz-adv-x="572" 
d="M232 -12q-51 0 -91 19.5t-63 53.5t-23 78q0 42 18 76.5t56 58.5t97 34l210 35v-68l-192 -32q-58 -10 -83.5 -37t-25.5 -64q0 -36 28.5 -61t73.5 -25q55 0 96 23.5t64 63.5t23 89v136q0 48 -35 78t-91 30q-49 0 -86 -24.5t-55 -63.5l-68 37q15 34 47.5 62t74.5 44.5
t87 16.5q59 0 104.5 -23t71 -63.5t25.5 -93.5v-368h-75v107l11 -11q-14 -30 -43.5 -54.5t-69 -39t-86.5 -14.5zM136 640q0 44 18.5 78t53.5 53t86 19t86 -19t53 -52.5t18 -78.5h-71q0 43 -22.5 66.5t-63.5 23.5t-63.5 -23.5t-22.5 -66.5h-72z" />
    <glyph glyph-name="uni0204" unicode="&#x204;" horiz-adv-x="612" 
d="M88 0v745h480v-75h-400v-259h380v-75h-380v-261h400v-75h-480zM215 849l-114 150h93l87 -150h-66zM375 849l-114 150h93l87 -150h-66z" />
    <glyph glyph-name="uni0205" unicode="&#x205;" horiz-adv-x="615" 
d="M321 -12q-75 0 -135.5 36.5t-95.5 100.5t-35 145t34 143.5t92.5 98.5t131.5 36q58 0 103.5 -21.5t77.5 -58t49 -82t17 -93.5q0 -10 -1 -22.5t-3 -25.5h-453v70h410l-36 -30q9 55 -12.5 98.5t-61.5 69t-90 25.5t-92.5 -26t-66.5 -72.5t-19 -110.5q-5 -64 20.5 -111.5
t70 -73.5t95.5 -26q59 0 99 28t65 70l64 -34q-16 -36 -49 -66.5t-78.5 -49t-100.5 -18.5zM195 640l-114 150h93l87 -150h-66zM355 640l-114 150h93l87 -150h-66z" />
    <glyph glyph-name="uni0206" unicode="&#x206;" horiz-adv-x="612" 
d="M88 0v745h480v-75h-400v-259h380v-75h-380v-261h400v-75h-480zM170 849q0 44 18.5 78t53.5 53t86 19t86 -19t53 -52.5t18 -78.5h-71q0 43 -22.5 66.5t-63.5 23.5t-63.5 -23.5t-22.5 -66.5h-72z" />
    <glyph glyph-name="uni0207" unicode="&#x207;" horiz-adv-x="615" 
d="M321 -12q-75 0 -135.5 36.5t-95.5 100.5t-35 145t34 143.5t92.5 98.5t131.5 36q58 0 103.5 -21.5t77.5 -58t49 -82t17 -93.5q0 -10 -1 -22.5t-3 -25.5h-453v70h410l-36 -30q9 55 -12.5 98.5t-61.5 69t-90 25.5t-92.5 -26t-66.5 -72.5t-19 -110.5q-5 -64 20.5 -111.5
t70 -73.5t95.5 -26q59 0 99 28t65 70l64 -34q-16 -36 -49 -66.5t-78.5 -49t-100.5 -18.5zM150 640q0 44 18.5 78t53.5 53t86 19t86 -19t53 -52.5t18 -78.5h-71q0 43 -22.5 66.5t-63.5 23.5t-63.5 -23.5t-22.5 -66.5h-72z" />
    <glyph glyph-name="uni0208" unicode="&#x208;" horiz-adv-x="256" 
d="M88 0v745h80v-745h-80zM15 849l-114 150h93l87 -150h-66zM175 849l-114 150h93l87 -150h-66z" />
    <glyph glyph-name="uni0209" unicode="&#x209;" horiz-adv-x="199" 
d="M62 0v536h75v-536h-75zM-14 640l-114 150h93l87 -150h-66zM146 640l-114 150h93l87 -150h-66z" />
    <glyph glyph-name="uni020A" unicode="&#x20a;" horiz-adv-x="256" 
d="M88 0v745h80v-745h-80zM-30 849q0 44 18.5 78t53.5 53t86 19t86 -19t53 -52.5t18 -78.5h-71q0 43 -22.5 66.5t-63.5 23.5t-63.5 -23.5t-22.5 -66.5h-72z" />
    <glyph glyph-name="uni020B" unicode="&#x20b;" horiz-adv-x="199" 
d="M62 0v536h75v-536h-75zM-59 640q0 44 18.5 78t53.5 53t86 19t86 -19t53 -52.5t18 -78.5h-71q0 43 -22.5 66.5t-63.5 23.5t-63.5 -23.5t-22.5 -66.5h-72z" />
    <glyph glyph-name="uni020C" unicode="&#x20c;" horiz-adv-x="878" 
d="M439 -12q-78 0 -145.5 28.5t-118.5 80t-80 122t-29 154.5t29 154.5t80 122t118.5 79.5t145.5 28t145.5 -28.5t118.5 -80t80 -121.5t29 -154t-29 -154.5t-80 -122t-118.5 -80t-145.5 -28.5zM439 63q65 0 118.5 24t92.5 67t60.5 99t21.5 120q0 63 -21.5 119t-60.5 99
t-92.5 67t-118.5 24t-118.5 -24t-92.5 -67t-60.5 -99t-21.5 -119q0 -64 21.5 -120t60.5 -99t93 -67t118 -24zM326 849l-114 150h93l87 -150h-66zM486 849l-114 150h93l87 -150h-66z" />
    <glyph glyph-name="uni020D" unicode="&#x20d;" horiz-adv-x="655" 
d="M328 -12q-76 0 -138 36.5t-98.5 100t-36.5 144.5q0 80 36 143t97.5 99.5t139.5 36.5t139.5 -36t97 -99t35.5 -144q0 -82 -37 -145.5t-98.5 -99.5t-136.5 -36zM328 63q54 0 97.5 27t69 74t25.5 105t-25.5 104t-69 73t-97.5 27t-97.5 -27t-69.5 -73t-26 -104t26 -105
t69.5 -74t97.5 -27zM215 640l-114 150h93l87 -150h-66zM375 640l-114 150h93l87 -150h-66z" />
    <glyph glyph-name="uni020E" unicode="&#x20e;" horiz-adv-x="878" 
d="M439 -12q-78 0 -145.5 28.5t-118.5 80t-80 122t-29 154.5t29 154.5t80 122t118.5 79.5t145.5 28t145.5 -28.5t118.5 -80t80 -121.5t29 -154t-29 -154.5t-80 -122t-118.5 -80t-145.5 -28.5zM439 63q65 0 118.5 24t92.5 67t60.5 99t21.5 120q0 63 -21.5 119t-60.5 99
t-92.5 67t-118.5 24t-118.5 -24t-92.5 -67t-60.5 -99t-21.5 -119q0 -64 21.5 -120t60.5 -99t93 -67t118 -24zM281 849q0 44 18.5 78t53.5 53t86 19t86 -19t53 -52.5t18 -78.5h-71q0 43 -22.5 66.5t-63.5 23.5t-63.5 -23.5t-22.5 -66.5h-72z" />
    <glyph glyph-name="uni020F" unicode="&#x20f;" horiz-adv-x="655" 
d="M328 -12q-76 0 -138 36.5t-98.5 100t-36.5 144.5q0 80 36 143t97.5 99.5t139.5 36.5t139.5 -36t97 -99t35.5 -144q0 -82 -37 -145.5t-98.5 -99.5t-136.5 -36zM328 63q54 0 97.5 27t69 74t25.5 105t-25.5 104t-69 73t-97.5 27t-97.5 -27t-69.5 -73t-26 -104t26 -105
t69.5 -74t97.5 -27zM170 640q0 44 18.5 78t53.5 53t86 19t86 -19t53 -52.5t18 -78.5h-71q0 43 -22.5 66.5t-63.5 23.5t-63.5 -23.5t-22.5 -66.5h-72z" />
    <glyph glyph-name="uni0210" unicode="&#x210;" horiz-adv-x="641" 
d="M88 0v745h256q73 0 128 -28.5t85.5 -80t30.5 -119.5q0 -79 -41.5 -135t-112.5 -79l174 -303h-94l-182 321l54 -31h-218v-290h-80zM168 365h180q48 0 84 18.5t56 53t20 81.5t-20 81t-56 52.5t-84 18.5h-180v-305zM202 849l-114 150h93l87 -150h-66zM362 849l-114 150h93
l87 -150h-66z" />
    <glyph glyph-name="uni0211" unicode="&#x211;" horiz-adv-x="338" 
d="M77 0v536h75v-88l-10 13q19 38 57.5 60t93.5 22h34v-75h-47q-58 0 -93 -36t-35 -102v-330h-75zM89 640l-114 150h93l87 -150h-66zM249 640l-114 150h93l87 -150h-66z" />
    <glyph glyph-name="uni0212" unicode="&#x212;" horiz-adv-x="641" 
d="M88 0v745h256q73 0 128 -28.5t85.5 -80t30.5 -119.5q0 -79 -41.5 -135t-112.5 -79l174 -303h-94l-182 321l54 -31h-218v-290h-80zM168 365h180q48 0 84 18.5t56 53t20 81.5t-20 81t-56 52.5t-84 18.5h-180v-305zM157 849q0 44 18.5 78t53.5 53t86 19t86 -19t53 -52.5
t18 -78.5h-71q0 43 -22.5 66.5t-63.5 23.5t-63.5 -23.5t-22.5 -66.5h-72z" />
    <glyph glyph-name="uni0213" unicode="&#x213;" horiz-adv-x="338" 
d="M77 0v536h75v-88l-10 13q19 38 57.5 60t93.5 22h34v-75h-47q-58 0 -93 -36t-35 -102v-330h-75zM44 640q0 44 18.5 78t53.5 53t86 19t86 -19t53 -52.5t18 -78.5h-71q0 43 -22.5 66.5t-63.5 23.5t-63.5 -23.5t-22.5 -66.5h-72z" />
    <glyph glyph-name="uni0214" unicode="&#x214;" horiz-adv-x="700" 
d="M350 -12q-79 0 -139 33t-93 90.5t-33 131.5v502h80v-502q0 -54 23.5 -94.5t65 -63t96.5 -22.5t96.5 22.5t65 63t23.5 94.5v502h80v-502q0 -74 -33 -131.5t-92.5 -90.5t-139.5 -33zM237 849l-114 150h93l87 -150h-66zM397 849l-114 150h93l87 -150h-66z" />
    <glyph glyph-name="uni0215" unicode="&#x215;" 
d="M267 -12q-56 0 -102 26.5t-72.5 74t-26.5 109.5v338h75v-329q0 -43 17.5 -75.5t49 -50.5t72.5 -18t73 18.5t50 53t18 82.5v319h75v-536h-75v104l17 -4q-19 -52 -65 -82t-106 -30zM174 640l-114 150h93l87 -150h-66zM334 640l-114 150h93l87 -150h-66z" />
    <glyph glyph-name="uni0216" unicode="&#x216;" horiz-adv-x="700" 
d="M350 -12q-79 0 -139 33t-93 90.5t-33 131.5v502h80v-502q0 -54 23.5 -94.5t65 -63t96.5 -22.5t96.5 22.5t65 63t23.5 94.5v502h80v-502q0 -74 -33 -131.5t-92.5 -90.5t-139.5 -33zM192 849q0 44 18.5 78t53.5 53t86 19t86 -19t53 -52.5t18 -78.5h-71q0 43 -22.5 66.5
t-63.5 23.5t-63.5 -23.5t-22.5 -66.5h-72z" />
    <glyph glyph-name="uni0217" unicode="&#x217;" 
d="M267 -12q-56 0 -102 26.5t-72.5 74t-26.5 109.5v338h75v-329q0 -43 17.5 -75.5t49 -50.5t72.5 -18t73 18.5t50 53t18 82.5v319h75v-536h-75v104l17 -4q-19 -52 -65 -82t-106 -30zM129 640q0 44 18.5 78t53.5 53t86 19t86 -19t53 -52.5t18 -78.5h-71q0 43 -22.5 66.5
t-63.5 23.5t-63.5 -23.5t-22.5 -66.5h-72z" />
    <glyph glyph-name="uni0218" unicode="&#x218;" horiz-adv-x="646" 
d="M339 -12q-71 0 -129 27t-98 72.5t-57 100.5l72 27q26 -76 81 -115.5t131 -39.5q48 0 84.5 15.5t56.5 43.5t20 65q0 55 -30 85t-86 46l-134 40q-79 23 -121.5 77t-42.5 123q0 59 29 104.5t79.5 71.5t114.5 26q67 0 120.5 -24.5t90.5 -64.5t53 -89l-70 -28
q-24 66 -74.5 100t-118.5 34q-43 0 -75.5 -15t-50.5 -43t-18 -66q0 -46 29 -82.5t89 -54.5l118 -35q88 -26 133 -75t45 -123q0 -60 -30.5 -105.5t-85 -71.5t-125.5 -26zM250 -240l44 170h90l-65 -170h-69z" />
    <glyph glyph-name="uni0219" unicode="&#x219;" horiz-adv-x="509" 
d="M263 -12q-77 0 -135 39t-84 106l63 30q23 -49 64.5 -78t91.5 -29q48 0 81 23.5t33 61.5q0 28 -16 44.5t-37 25.5t-37 13l-77 22q-74 21 -107 59t-33 88q0 47 24 82t65 54t91 19q68 0 123.5 -35.5t78.5 -98.5l-64 -30q-20 45 -57.5 70.5t-83.5 25.5q-45 0 -72 -23t-27 -58
q0 -27 14 -43t32.5 -24t32.5 -12l89 -26q65 -19 101.5 -59t36.5 -94q0 -44 -24.5 -79t-67.5 -54.5t-99 -19.5zM166 -240l44 170h90l-65 -170h-69z" />
    <glyph glyph-name="uni021A" unicode="&#x21a;" horiz-adv-x="512" 
d="M217 0v670h-206v75h490v-75h-204v-670h-80zM167 -240l44 170h90l-65 -170h-69z" />
    <glyph glyph-name="uni021B" unicode="&#x21b;" horiz-adv-x="388" 
d="M282 -6q-72 0 -111 42t-39 120v305h-99v75h25q34 0 54 22.5t20 56.5v45h75v-124h118v-75h-118v-305q0 -27 8 -47.5t27.5 -32.5t52.5 -12q8 0 19 1t19 2v-67q-12 -3 -27 -4.5t-24 -1.5zM185 -240l44 170h90l-65 -170h-69z" />
    <glyph glyph-name="uni022A" unicode="&#x22a;" horiz-adv-x="878" 
d="M439 -12q-78 0 -145.5 28.5t-118.5 80t-80 122t-29 154.5t29 154.5t80 122t118.5 79.5t145.5 28t145.5 -28.5t118.5 -80t80 -121.5t29 -154t-29 -154.5t-80 -122t-118.5 -80t-145.5 -28.5zM439 63q65 0 118.5 24t92.5 67t60.5 99t21.5 120q0 63 -21.5 119t-60.5 99
t-92.5 67t-118.5 24t-118.5 -24t-92.5 -67t-60.5 -99t-21.5 -119q0 -64 21.5 -120t60.5 -99t93 -67t118 -24zM299 849v100h100v-100h-100zM479 849v100h100v-100h-100zM304 1039v70h270v-70h-270z" />
    <glyph glyph-name="uni022B" unicode="&#x22b;" horiz-adv-x="655" 
d="M328 -12q-76 0 -138 36.5t-98.5 100t-36.5 144.5q0 80 36 143t97.5 99.5t139.5 36.5t139.5 -36t97 -99t35.5 -144q0 -82 -37 -145.5t-98.5 -99.5t-136.5 -36zM328 63q54 0 97.5 27t69 74t25.5 105t-25.5 104t-69 73t-97.5 27t-97.5 -27t-69.5 -73t-26 -104t26 -105
t69.5 -74t97.5 -27zM188 640v100h100v-100h-100zM368 640v100h100v-100h-100zM193 830v70h270v-70h-270z" />
    <glyph glyph-name="uni022C" unicode="&#x22c;" horiz-adv-x="878" 
d="M439 -12q-78 0 -145.5 28.5t-118.5 80t-80 122t-29 154.5t29 154.5t80 122t118.5 79.5t145.5 28t145.5 -28.5t118.5 -80t80 -121.5t29 -154t-29 -154.5t-80 -122t-118.5 -80t-145.5 -28.5zM439 63q65 0 118.5 24t92.5 67t60.5 99t21.5 120q0 63 -21.5 119t-60.5 99
t-92.5 67t-118.5 24t-118.5 -24t-92.5 -67t-60.5 -99t-21.5 -119q0 -64 21.5 -120t60.5 -99t93 -67t118 -24zM498 849q-26 0 -42 9.5t-27 22t-22.5 22t-28.5 9.5q-16 0 -26 -13t-10 -46h-62q0 60 26.5 91.5t71.5 31.5q26 0 42 -9.5t27 -22t22.5 -22t28.5 -9.5
q18 0 28.5 15.5t10.5 43.5h61q0 -55 -27 -89t-73 -34zM304 1029v70h270v-70h-270z" />
    <glyph glyph-name="uni022D" unicode="&#x22d;" horiz-adv-x="655" 
d="M328 -12q-76 0 -138 36.5t-98.5 100t-36.5 144.5q0 80 36 143t97.5 99.5t139.5 36.5t139.5 -36t97 -99t35.5 -144q0 -82 -37 -145.5t-98.5 -99.5t-136.5 -36zM328 63q54 0 97.5 27t69 74t25.5 105t-25.5 104t-69 73t-97.5 27t-97.5 -27t-69.5 -73t-26 -104t26 -105
t69.5 -74t97.5 -27zM387 640q-26 0 -42 9.5t-27 22t-22.5 22t-28.5 9.5q-16 0 -26 -13t-10 -46h-62q0 60 26.5 91.5t71.5 31.5q26 0 42 -9.5t27 -22t22.5 -22t28.5 -9.5q18 0 28.5 15.5t10.5 43.5h61q0 -55 -27 -89t-73 -34zM193 820v70h270v-70h-270z" />
    <glyph glyph-name="uni0230" unicode="&#x230;" horiz-adv-x="878" 
d="M439 -12q-78 0 -145.5 28.5t-118.5 80t-80 122t-29 154.5t29 154.5t80 122t118.5 79.5t145.5 28t145.5 -28.5t118.5 -80t80 -121.5t29 -154t-29 -154.5t-80 -122t-118.5 -80t-145.5 -28.5zM439 63q65 0 118.5 24t92.5 67t60.5 99t21.5 120q0 63 -21.5 119t-60.5 99
t-92.5 67t-118.5 24t-118.5 -24t-92.5 -67t-60.5 -99t-21.5 -119q0 -64 21.5 -120t60.5 -99t93 -67t118 -24zM389 849v100h100v-100h-100zM304 1039v70h270v-70h-270z" />
    <glyph glyph-name="uni0231" unicode="&#x231;" horiz-adv-x="655" 
d="M328 -12q-76 0 -138 36.5t-98.5 100t-36.5 144.5q0 80 36 143t97.5 99.5t139.5 36.5t139.5 -36t97 -99t35.5 -144q0 -82 -37 -145.5t-98.5 -99.5t-136.5 -36zM328 63q54 0 97.5 27t69 74t25.5 105t-25.5 104t-69 73t-97.5 27t-97.5 -27t-69.5 -73t-26 -104t26 -105
t69.5 -74t97.5 -27zM278 640v100h100v-100h-100zM193 830v70h270v-70h-270z" />
    <glyph glyph-name="uni0232" unicode="&#x232;" horiz-adv-x="623" 
d="M272 0v346l-261 399h89l228 -347h-32l227 347h89l-260 -399v-346h-80zM177 869v70h270v-70h-270z" />
    <glyph glyph-name="uni0233" unicode="&#x233;" horiz-adv-x="536" 
d="M88 -220q-16 0 -32.5 2.5t-32.5 8.5v70q10 -1 25.5 -3.5t31.5 -2.5q49 0 75 20.5t51 78.5l34 80l-2 -66l-227 568h81l186 -469h-21l185 469h83l-245 -604q-16 -39 -40.5 -74t-61.5 -56.5t-90 -21.5zM133 660v70h270v-70h-270z" />
    <glyph glyph-name="uni0237" unicode="&#x237;" horiz-adv-x="229" 
d="M-23 -220q-7 0 -19.5 1t-20.5 3v69q21 -3 42 -3q41 0 69.5 25t28.5 75v586h75v-586q0 -55 -24 -93t-63.5 -57.5t-87.5 -19.5z" />
    <glyph glyph-name="uni0259" unicode="&#x259;" horiz-adv-x="615" 
d="M302 -12q-58 0 -103.5 21.5t-77.5 58t-49 82t-17 93.5q0 10 1 22.5t3 25.5h453v-70h-410l36 30q-8 -55 13 -98.5t61.5 -69t89.5 -25.5q50 0 92.5 26t66.5 73t19 110q5 65 -20.5 112t-70 73t-95.5 26q-58 0 -98 -28t-66 -70l-64 34q17 37 49.5 67t78.5 48.5t100 18.5
q75 0 135 -36.5t95.5 -100t35.5 -145.5q0 -80 -34 -143t-92 -99t-132 -36z" />
    <glyph glyph-name="circumflex" unicode="&#x2c6;" horiz-adv-x="480" 
d="M103 640l120 150h84l121 -150h-88l-75 91l-74 -91h-88z" />
    <glyph glyph-name="caron" unicode="&#x2c7;" horiz-adv-x="480" 
d="M223 640l-120 150h88l74 -91l75 91h88l-121 -150h-84z" />
    <glyph glyph-name="breve" unicode="&#x2d8;" horiz-adv-x="476" 
d="M261 640q-51 0 -86 19t-53.5 53t-18.5 78h72q0 -43 22.5 -66.5t63.5 -23.5t63.5 23.5t22.5 66.5h71q0 -44 -18 -78t-53 -53t-86 -19z" />
    <glyph glyph-name="dotaccent" unicode="&#x2d9;" horiz-adv-x="269" 
d="M103 640v100h100v-100h-100z" />
    <glyph glyph-name="ring" unicode="&#x2da;" horiz-adv-x="386" 
d="M213 620q-44 0 -77 28.5t-33 78.5t32.5 79t77.5 29q44 0 77 -29t33 -79q0 -49 -33 -78t-77 -29zM213 674q22 0 37 14.5t15 38.5t-15 38.5t-37 14.5q-21 0 -36.5 -14t-15.5 -39q0 -24 15 -38.5t37 -14.5z" />
    <glyph glyph-name="ogonek" unicode="&#x2db;" horiz-adv-x="382" 
d="M220 -230q-54 0 -85.5 28t-31.5 73q0 37 18.5 66.5t48.5 51t64 31.5h31v-20q-20 -5 -41 -22t-35 -42.5t-14 -56.5q0 -19 15 -34t40 -15q19 0 38.5 8t34.5 22l21 -53q-18 -17 -46.5 -27t-57.5 -10z" />
    <glyph glyph-name="tilde" unicode="&#x2dc;" horiz-adv-x="480" 
d="M321 640q-26 0 -42 9.5t-27 22t-22.5 22t-28.5 9.5q-16 0 -26 -13t-10 -46h-62q0 60 26.5 91.5t71.5 31.5q26 0 42 -9.5t27 -22t22.5 -22t28.5 -9.5q18 0 28.5 15.5t10.5 43.5h61q0 -55 -27 -89t-73 -34z" />
    <glyph glyph-name="hungarumlaut" unicode="&#x2dd;" horiz-adv-x="489" 
d="M103 640l57 150h93l-84 -150h-66zM263 640l57 150h93l-84 -150h-66z" />
    <glyph glyph-name="gravecomb" unicode="&#x300;" horiz-adv-x="0" 
d="M217 640l-114 150h103l87 -150h-76z" />
    <glyph glyph-name="acutecomb" unicode="&#x301;" horiz-adv-x="0" 
d="M103 640l87 150h103l-114 -150h-76z" />
    <glyph glyph-name="uni0302" unicode="&#x302;" horiz-adv-x="0" 
d="M103 640l120 150h84l121 -150h-88l-75 91l-74 -91h-88z" />
    <glyph glyph-name="tildecomb" unicode="&#x303;" horiz-adv-x="0" 
d="M321 640q-26 0 -42 9.5t-27 22t-22.5 22t-28.5 9.5q-16 0 -26 -13t-10 -46h-62q0 60 26.5 91.5t71.5 31.5q26 0 42 -9.5t27 -22t22.5 -22t28.5 -9.5q18 0 28.5 15.5t10.5 43.5h61q0 -55 -27 -89t-73 -34z" />
    <glyph glyph-name="uni0304" unicode="&#x304;" horiz-adv-x="0" 
d="M103 660v70h270v-70h-270z" />
    <glyph glyph-name="uni0306" unicode="&#x306;" horiz-adv-x="0" 
d="M261 640q-51 0 -86 19t-53.5 53t-18.5 78h72q0 -43 22.5 -66.5t63.5 -23.5t63.5 23.5t22.5 66.5h71q0 -44 -18 -78t-53 -53t-86 -19z" />
    <glyph glyph-name="uni0307" unicode="&#x307;" horiz-adv-x="0" 
d="M103 640v100h100v-100h-100z" />
    <glyph glyph-name="uni0308" unicode="&#x308;" horiz-adv-x="0" 
d="M103 640v100h100v-100h-100zM283 640v100h100v-100h-100z" />
    <glyph glyph-name="hookabovecomb" unicode="&#x309;" horiz-adv-x="0" 
d="M202 600l-33 45q25 8 37 22t12 34q0 17 -14 29.5t-37 12.5q-12 0 -23 -2t-29 -10l-12 51q20 11 38.5 14.5t34.5 3.5q50 0 81 -26.5t31 -68.5q0 -34 -24 -62.5t-62 -42.5z" />
    <glyph glyph-name="uni030A" unicode="&#x30a;" horiz-adv-x="0" 
d="M213 620q-44 0 -77 28.5t-33 78.5t32.5 79t77.5 29q44 0 77 -29t33 -79q0 -49 -33 -78t-77 -29zM213 674q22 0 37 14.5t15 38.5t-15 38.5t-37 14.5q-21 0 -36.5 -14t-15.5 -39q0 -24 15 -38.5t37 -14.5z" />
    <glyph glyph-name="uni030B" unicode="&#x30b;" horiz-adv-x="0" 
d="M103 640l57 150h93l-84 -150h-66zM263 640l57 150h93l-84 -150h-66z" />
    <glyph glyph-name="uni030C" unicode="&#x30c;" horiz-adv-x="0" 
d="M223 640l-120 150h88l74 -91l75 91h88l-121 -150h-84z" />
    <glyph glyph-name="uni030F" unicode="&#x30f;" horiz-adv-x="0" 
d="M217 640l-114 150h93l87 -150h-66zM377 640l-114 150h93l87 -150h-66z" />
    <glyph glyph-name="uni0311" unicode="&#x311;" horiz-adv-x="0" 
d="M103 640q0 44 18.5 78t53.5 53t86 19t86 -19t53 -52.5t18 -78.5h-71q0 43 -22.5 66.5t-63.5 23.5t-63.5 -23.5t-22.5 -66.5h-72z" />
    <glyph glyph-name="uni0312" unicode="&#x312;" horiz-adv-x="0" 
d="M103 600l65 170h69l-44 -170h-90z" />
    <glyph glyph-name="uni031B" unicode="&#x31b;" horiz-adv-x="0" 
d="M103 640v61h13q13 0 24.5 4.5t19 16t7.5 32.5t-6.5 40.5t-15.5 39.5h74q9 -20 16 -41t7 -46q0 -55 -32 -81t-84 -26h-23z" />
    <glyph glyph-name="dotbelowcomb" unicode="&#x323;" horiz-adv-x="0" 
d="M103 -190v100h100v-100h-100z" />
    <glyph glyph-name="uni0324" unicode="&#x324;" horiz-adv-x="0" 
d="M103 -190v100h100v-100h-100zM283 -190v100h100v-100h-100z" />
    <glyph glyph-name="uni0326" unicode="&#x326;" horiz-adv-x="0" 
d="M103 -240l44 170h90l-65 -170h-69z" />
    <glyph glyph-name="uni0327" unicode="&#x327;" horiz-adv-x="0" 
d="M207 -230q-29 0 -57.5 10t-46.5 27l21 53q15 -14 34.5 -22t38.5 -8q22 0 35.5 11.5t13.5 29.5q0 23 -23 36t-75 19l24 84h54l-13 -48q52 -11 78.5 -35.5t26.5 -60.5q0 -42 -31.5 -69t-79.5 -27z" />
    <glyph glyph-name="uni0328" unicode="&#x328;" horiz-adv-x="0" 
d="M220 -230q-54 0 -85.5 28t-31.5 73q0 37 18.5 66.5t48.5 51t64 31.5h31v-20q-20 -5 -41 -22t-35 -42.5t-14 -56.5q0 -19 15 -34t40 -15q19 0 38.5 8t34.5 22l21 -53q-18 -17 -46.5 -27t-57.5 -10z" />
    <glyph glyph-name="uni032E" unicode="&#x32e;" horiz-adv-x="0" 
d="M261 -240q-51 0 -86 19t-53.5 53t-18.5 78h72q0 -43 22.5 -66.5t63.5 -23.5t63.5 23.5t22.5 66.5h71q0 -44 -18 -78t-53 -53t-86 -19z" />
    <glyph glyph-name="uni0331" unicode="&#x331;" horiz-adv-x="0" 
d="M103 -170v70h270v-70h-270z" />
    <glyph glyph-name="uni0394" unicode="&#x394;" horiz-adv-x="598" 
d="M11 0v75l245 670h86l245 -670v-75h-576zM83 41l-24 34h480l-24 -34l-228 644h24z" />
    <glyph glyph-name="uni03A9" unicode="&#x3a9;" horiz-adv-x="878" 
d="M66 0v75h181l-17 -13q-74 47 -119 127.5t-45 183.5q0 84 29 154.5t80 122t118.5 79.5t145.5 28t145.5 -28t118.5 -79.5t80 -122t29 -154.5q0 -103 -45 -183.5t-119 -127.5l-17 13h181v-75h-292v75q64 18 111.5 61t74 104.5t26.5 132.5q0 63 -21.5 119t-60.5 99t-92.5 67
t-118.5 24t-118.5 -24t-92.5 -67t-60.5 -99t-21.5 -119q0 -71 26.5 -132.5t74 -104.5t111.5 -61v-75h-292z" />
    <glyph glyph-name="pi" unicode="&#x3c0;" horiz-adv-x="646" 
d="M133 0v461h-100v75h580v-75h-100v-461h-75v461h-230v-461h-75z" />
    <glyph glyph-name="uni0E3F" unicode="&#xe3f;" horiz-adv-x="693" 
d="M88 0v745h313q63 0 109.5 -23.5t72 -65.5t25.5 -98q0 -58 -28.5 -102.5t-81.5 -67.5l-1 24q44 -16 75.5 -45t48.5 -67.5t17 -82.5q0 -100 -63.5 -158.5t-172.5 -58.5h-314zM168 75h234q71 0 113.5 37.5t42.5 103.5q0 65 -42.5 103.5t-113.5 38.5h-234v-283zM168 430h227
q60 0 96.5 35t36.5 90q0 56 -36.5 85.5t-96.5 29.5h-227v-240zM299 -100v945h70v-945h-70z" />
    <glyph glyph-name="uni1E08" unicode="&#x1e08;" horiz-adv-x="781" 
d="M428 -12q-79 0 -145 28.5t-114.5 80t-75.5 121.5t-27 154t27 154t75.5 122t114.5 80.5t145 28.5q76 0 136.5 -27t102 -69.5t59.5 -89.5l-75 -33q-28 65 -85.5 104.5t-137.5 39.5q-82 0 -146 -39t-100 -108.5t-36 -162.5q0 -92 36 -162t100 -108.5t146 -38.5
q80 0 137.5 39t85.5 104l75 -33q-18 -46 -59.5 -88.5t-102 -69.5t-136.5 -27zM440 -230q-29 0 -57.5 10t-46.5 27l21 53q15 -14 34.5 -22t38.5 -8q22 0 35.5 11.5t13.5 29.5q0 23 -23 36t-75 19l24 84h54l-13 -48q52 -11 78.5 -35.5t26.5 -60.5q0 -42 -31.5 -69t-79.5 -27z
M390 849l87 150h103l-114 -150h-76z" />
    <glyph glyph-name="uni1E09" unicode="&#x1e09;" horiz-adv-x="600" 
d="M322 -12q-79 0 -139 37t-94 100.5t-34 143.5t34 143t94 99.5t139 36.5q50 0 94 -18t78 -48.5t51 -70.5l-68 -35q-20 43 -61 70t-94 27t-95.5 -26.5t-67 -73t-24.5 -105.5q0 -58 24.5 -104.5t67 -73.5t95.5 -27t93.5 27t61.5 72l68 -37q-17 -39 -51 -70t-78 -49t-94 -18z
M334 -230q-29 0 -57.5 10t-46.5 27l21 53q15 -14 34.5 -22t38.5 -8q22 0 35.5 11.5t13.5 29.5q0 23 -23 36t-75 19l24 84h54l-13 -48q52 -11 78.5 -35.5t26.5 -60.5q0 -42 -31.5 -69t-79.5 -27zM284 640l87 150h103l-114 -150h-76z" />
    <glyph glyph-name="uni1E0C" unicode="&#x1e0c;" horiz-adv-x="742" 
d="M88 0v745h245q111 0 193 -45.5t127 -129t45 -197.5q0 -113 -45 -197t-127 -130t-193 -46h-245zM168 75h165q86 0 149 36.5t97.5 103.5t34.5 158t-35 157.5t-98 103t-148 36.5h-165v-595zM332 -190v100h100v-100h-100z" />
    <glyph glyph-name="uni1E0D" unicode="&#x1e0d;" horiz-adv-x="667" 
d="M319 -12q-75 0 -135 36.5t-94.5 100t-34.5 143.5q0 81 34.5 144t94 99.5t135.5 36.5q69 0 123 -30t85 -81l-12 -21v341h75v-757h-75v120l12 -11q-28 -58 -83.5 -89.5t-124.5 -31.5zM323 63q54 0 97.5 27t69 73.5t25.5 104.5t-25.5 104.5t-69 73.5t-97.5 27q-53 0 -96 -27
t-67.5 -73t-24.5 -105q0 -58 24.5 -104.5t67 -73.5t96.5 -27zM284 -190v100h100v-100h-100z" />
    <glyph glyph-name="uni1E0E" unicode="&#x1e0e;" horiz-adv-x="742" 
d="M88 0v745h245q111 0 193 -45.5t127 -129t45 -197.5q0 -113 -45 -197t-127 -130t-193 -46h-245zM168 75h165q86 0 149 36.5t97.5 103.5t34.5 158t-35 157.5t-98 103t-148 36.5h-165v-595zM247 -170v70h270v-70h-270z" />
    <glyph glyph-name="uni1E0F" unicode="&#x1e0f;" horiz-adv-x="667" 
d="M319 -12q-75 0 -135 36.5t-94.5 100t-34.5 143.5q0 81 34.5 144t94 99.5t135.5 36.5q69 0 123 -30t85 -81l-12 -21v341h75v-757h-75v120l12 -11q-28 -58 -83.5 -89.5t-124.5 -31.5zM323 63q54 0 97.5 27t69 73.5t25.5 104.5t-25.5 104.5t-69 73.5t-97.5 27q-53 0 -96 -27
t-67.5 -73t-24.5 -105q0 -58 24.5 -104.5t67 -73.5t96.5 -27zM199 -170v70h270v-70h-270z" />
    <glyph glyph-name="uni1E14" unicode="&#x1e14;" horiz-adv-x="612" 
d="M88 0v745h480v-75h-400v-259h380v-75h-380v-261h400v-75h-480zM193 869v70h270v-70h-270zM290 1009l-114 150h103l87 -150h-76z" />
    <glyph glyph-name="uni1E15" unicode="&#x1e15;" horiz-adv-x="615" 
d="M321 -12q-75 0 -135.5 36.5t-95.5 100.5t-35 145t34 143.5t92.5 98.5t131.5 36q58 0 103.5 -21.5t77.5 -58t49 -82t17 -93.5q0 -10 -1 -22.5t-3 -25.5h-453v70h410l-36 -30q9 55 -12.5 98.5t-61.5 69t-90 25.5t-92.5 -26t-66.5 -72.5t-19 -110.5q-5 -64 20.5 -111.5
t70 -73.5t95.5 -26q59 0 99 28t65 70l64 -34q-16 -36 -49 -66.5t-78.5 -49t-100.5 -18.5zM173 660v70h270v-70h-270zM270 800l-114 150h103l87 -150h-76z" />
    <glyph glyph-name="uni1E16" unicode="&#x1e16;" horiz-adv-x="612" 
d="M88 0v745h480v-75h-400v-259h380v-75h-380v-261h400v-75h-480zM281 1009l87 150h103l-114 -150h-76zM184 869v70h270v-70h-270z" />
    <glyph glyph-name="uni1E17" unicode="&#x1e17;" horiz-adv-x="615" 
d="M321 -12q-75 0 -135.5 36.5t-95.5 100.5t-35 145t34 143.5t92.5 98.5t131.5 36q58 0 103.5 -21.5t77.5 -58t49 -82t17 -93.5q0 -10 -1 -22.5t-3 -25.5h-453v70h410l-36 -30q9 55 -12.5 98.5t-61.5 69t-90 25.5t-92.5 -26t-66.5 -72.5t-19 -110.5q-5 -64 20.5 -111.5
t70 -73.5t95.5 -26q59 0 99 28t65 70l64 -34q-16 -36 -49 -66.5t-78.5 -49t-100.5 -18.5zM261 800l87 150h103l-114 -150h-76zM164 660v70h270v-70h-270z" />
    <glyph glyph-name="uni1E1C" unicode="&#x1e1c;" horiz-adv-x="612" 
d="M88 0v745h480v-75h-400v-259h380v-75h-380v-261h400v-75h-480zM340 -230q-29 0 -57.5 10t-46.5 27l21 53q15 -14 34.5 -22t38.5 -8q22 0 35.5 11.5t13.5 29.5q0 23 -23 36t-75 19l24 84h54l-13 -48q52 -11 78.5 -35.5t26.5 -60.5q0 -42 -31.5 -69t-79.5 -27zM328 849
q-51 0 -86 19t-53.5 53t-18.5 78h72q0 -43 22.5 -66.5t63.5 -23.5t63.5 23.5t22.5 66.5h71q0 -44 -18 -78t-53 -53t-86 -19z" />
    <glyph glyph-name="uni1E1D" unicode="&#x1e1d;" horiz-adv-x="615" 
d="M321 -12q-75 0 -135.5 36.5t-95.5 100.5t-35 145t34 143.5t92.5 98.5t131.5 36q58 0 103.5 -21.5t77.5 -58t49 -82t17 -93.5q0 -10 -1 -22.5t-3 -25.5h-453v70h410l-36 -30q9 55 -12.5 98.5t-61.5 69t-90 25.5t-92.5 -26t-66.5 -72.5t-19 -110.5q-5 -64 20.5 -111.5
t70 -73.5t95.5 -26q59 0 99 28t65 70l64 -34q-16 -36 -49 -66.5t-78.5 -49t-100.5 -18.5zM320 -230q-29 0 -57.5 10t-46.5 27l21 53q15 -14 34.5 -22t38.5 -8q22 0 35.5 11.5t13.5 29.5q0 23 -23 36t-75 19l24 84h54l-13 -48q52 -11 78.5 -35.5t26.5 -60.5q0 -42 -31.5 -69
t-79.5 -27zM308 640q-51 0 -86 19t-53.5 53t-18.5 78h72q0 -43 22.5 -66.5t63.5 -23.5t63.5 23.5t22.5 66.5h71q0 -44 -18 -78t-53 -53t-86 -19z" />
    <glyph glyph-name="uni1E20" unicode="&#x1e20;" horiz-adv-x="821" 
d="M428 -12q-79 0 -145 28.5t-114.5 80t-75.5 121.5t-27 154t27 154t75.5 122t114.5 80.5t145 28.5q76 0 136.5 -27t102 -69.5t59.5 -89.5l-72 -35q-28 68 -86 107t-140 39t-146 -39t-100 -108.5t-36 -162.5q0 -92 36 -162t100 -108.5t146 -38.5q73 0 131.5 32t92.5 87.5
t34 127.5v41l36 -36h-294v70h338v-62q0 -73 -26 -134.5t-72 -106.5t-107.5 -69.5t-132.5 -24.5zM276 869v70h270v-70h-270z" />
    <glyph glyph-name="uni1E21" unicode="&#x1e21;" horiz-adv-x="662" 
d="M331 -220q-55 0 -101.5 17t-80 46.5t-51.5 68.5l69 37q16 -38 57 -66t105 -28q49 0 90 19t66 56t25 91v119l12 -11q-28 -58 -83 -89.5t-120 -31.5q-75 0 -135 36t-94.5 97.5t-34.5 136.5q0 76 34.5 137t94 97t135.5 36q65 0 118.5 -30t84.5 -81l-12 -21v120h75v-515
q0 -69 -32.5 -123.5t-90 -86t-131.5 -31.5zM323 83q52 0 94 26.5t67.5 71t25.5 97.5t-25.5 97.5t-67.5 71t-94 26.5q-53 0 -96 -26.5t-67.5 -70.5t-24.5 -98q0 -53 24.5 -97.5t67 -71t96.5 -26.5zM196 660v70h270v-70h-270z" />
    <glyph glyph-name="uni1E24" unicode="&#x1e24;" horiz-adv-x="736" 
d="M88 0v745h80v-335h400v335h80v-745h-80v335h-400v-335h-80zM318 -190v100h100v-100h-100z" />
    <glyph glyph-name="uni1E25" unicode="&#x1e25;" 
d="M77 0v757h75v-325l-17 4q20 52 65.5 82t105.5 30q57 0 102.5 -26t72 -71.5t26.5 -102.5v-348h-75v319q0 49 -18 83t-49.5 52.5t-71.5 18.5t-72 -18.5t-50.5 -53t-18.5 -82.5v-319h-75zM237 -190v100h100v-100h-100z" />
    <glyph glyph-name="uni1E2A" unicode="&#x1e2a;" horiz-adv-x="736" 
d="M88 0v745h80v-335h400v335h80v-745h-80v335h-400v-335h-80zM368 -240q-51 0 -86 19t-53.5 53t-18.5 78h72q0 -43 22.5 -66.5t63.5 -23.5t63.5 23.5t22.5 66.5h71q0 -44 -18 -78t-53 -53t-86 -19z" />
    <glyph glyph-name="uni1E2B" unicode="&#x1e2b;" 
d="M77 0v757h75v-325l-17 4q20 52 65.5 82t105.5 30q57 0 102.5 -26t72 -71.5t26.5 -102.5v-348h-75v319q0 49 -18 83t-49.5 52.5t-71.5 18.5t-72 -18.5t-50.5 -53t-18.5 -82.5v-319h-75zM287 -240q-51 0 -86 19t-53.5 53t-18.5 78h72q0 -43 22.5 -66.5t63.5 -23.5
t63.5 23.5t22.5 66.5h71q0 -44 -18 -78t-53 -53t-86 -19z" />
    <glyph glyph-name="uni1E2E" unicode="&#x1e2e;" horiz-adv-x="256" 
d="M88 0v745h80v-745h-80zM83 1009l87 150h103l-114 -150h-76zM-17 849v100h100v-100h-100zM163 849v100h100v-100h-100z" />
    <glyph glyph-name="uni1E2F" unicode="&#x1e2f;" horiz-adv-x="199" 
d="M62 0v536h75v-536h-75zM54 800l87 150h103l-114 -150h-76zM-46 640v100h100v-100h-100zM134 640v100h100v-100h-100z" />
    <glyph glyph-name="uni1E36" unicode="&#x1e36;" horiz-adv-x="531" 
d="M88 0v745h80v-670h330v-75h-410zM243 -190v100h100v-100h-100z" />
    <glyph glyph-name="uni1E37" unicode="&#x1e37;" horiz-adv-x="229" 
d="M77 0v757h75v-757h-75zM65 -190v100h100v-100h-100z" />
    <glyph glyph-name="uni1E3A" unicode="&#x1e3a;" horiz-adv-x="531" 
d="M88 0v745h80v-670h330v-75h-410zM158 -170v70h270v-70h-270z" />
    <glyph glyph-name="uni1E3B" unicode="&#x1e3b;" horiz-adv-x="229" 
d="M77 0v757h75v-757h-75zM-20 -170v70h270v-70h-270z" />
    <glyph glyph-name="uni1E42" unicode="&#x1e42;" horiz-adv-x="836" 
d="M88 0v745h70l280 -406h-39l279 406h70v-745h-80v637l26 -10l-274 -397h-4l-273 397l25 10v-637h-80zM368 -190v100h100v-100h-100z" />
    <glyph glyph-name="uni1E43" unicode="&#x1e43;" horiz-adv-x="908" 
d="M77 0v536h75v-102l-12 15q22 47 65.5 73t95.5 26q62 0 112 -35t71 -91l-21 -1q20 62 69.5 94.5t109.5 32.5q54 0 99.5 -26t73 -71.5t27.5 -102.5v-348h-75v319q0 49 -17.5 83t-47.5 52.5t-69 18.5q-38 0 -69 -18.5t-49 -53t-18 -82.5v-319h-75v319q0 49 -17.5 83
t-47.5 52.5t-69 18.5t-69.5 -18.5t-48.5 -53t-18 -82.5v-319h-75zM404 -190v100h100v-100h-100z" />
    <glyph glyph-name="uni1E44" unicode="&#x1e44;" horiz-adv-x="736" 
d="M88 0v745h70l437 -627h-27v627h80v-745h-70l-437 631h27v-631h-80zM318 849v100h100v-100h-100z" />
    <glyph glyph-name="uni1E45" unicode="&#x1e45;" 
d="M77 0v536h75v-104l-17 4q20 52 65.5 82t105.5 30q57 0 102.5 -26t72 -71.5t26.5 -102.5v-348h-75v319q0 49 -17.5 83t-49 52.5t-72.5 18.5t-73 -18.5t-50 -53t-18 -82.5v-319h-75zM237 640v100h100v-100h-100z" />
    <glyph glyph-name="uni1E46" unicode="&#x1e46;" horiz-adv-x="736" 
d="M88 0v745h70l437 -627h-27v627h80v-745h-70l-437 631h27v-631h-80zM318 -190v100h100v-100h-100z" />
    <glyph glyph-name="uni1E47" unicode="&#x1e47;" 
d="M77 0v536h75v-104l-17 4q20 52 65.5 82t105.5 30q57 0 102.5 -26t72 -71.5t26.5 -102.5v-348h-75v319q0 49 -17.5 83t-49 52.5t-72.5 18.5t-73 -18.5t-50 -53t-18 -82.5v-319h-75zM237 -190v100h100v-100h-100z" />
    <glyph glyph-name="uni1E48" unicode="&#x1e48;" horiz-adv-x="736" 
d="M88 0v745h70l437 -627h-27v627h80v-745h-70l-437 631h27v-631h-80zM233 -170v70h270v-70h-270z" />
    <glyph glyph-name="uni1E49" unicode="&#x1e49;" 
d="M77 0v536h75v-104l-17 4q20 52 65.5 82t105.5 30q57 0 102.5 -26t72 -71.5t26.5 -102.5v-348h-75v319q0 49 -17.5 83t-49 52.5t-72.5 18.5t-73 -18.5t-50 -53t-18 -82.5v-319h-75zM152 -170v70h270v-70h-270z" />
    <glyph glyph-name="uni1E4C" unicode="&#x1e4c;" horiz-adv-x="878" 
d="M439 -12q-78 0 -145.5 28.5t-118.5 80t-80 122t-29 154.5t29 154.5t80 122t118.5 79.5t145.5 28t145.5 -28.5t118.5 -80t80 -121.5t29 -154t-29 -154.5t-80 -122t-118.5 -80t-145.5 -28.5zM439 63q65 0 118.5 24t92.5 67t60.5 99t21.5 120q0 63 -21.5 119t-60.5 99
t-92.5 67t-118.5 24t-118.5 -24t-92.5 -67t-60.5 -99t-21.5 -119q0 -64 21.5 -120t60.5 -99t93 -67t118 -24zM498 849q-26 0 -42 9.5t-27 22t-22.5 22t-28.5 9.5q-16 0 -26 -13t-10 -46h-62q0 60 26.5 91.5t71.5 31.5q26 0 42 -9.5t27 -22t22.5 -22t28.5 -9.5
q18 0 28.5 15.5t10.5 43.5h61q0 -55 -27 -89t-73 -34zM401 1009l87 150h103l-114 -150h-76z" />
    <glyph glyph-name="uni1E4D" unicode="&#x1e4d;" horiz-adv-x="655" 
d="M328 -12q-76 0 -138 36.5t-98.5 100t-36.5 144.5q0 80 36 143t97.5 99.5t139.5 36.5t139.5 -36t97 -99t35.5 -144q0 -82 -37 -145.5t-98.5 -99.5t-136.5 -36zM328 63q54 0 97.5 27t69 74t25.5 105t-25.5 104t-69 73t-97.5 27t-97.5 -27t-69.5 -73t-26 -104t26 -105
t69.5 -74t97.5 -27zM387 640q-26 0 -42 9.5t-27 22t-22.5 22t-28.5 9.5q-16 0 -26 -13t-10 -46h-62q0 60 26.5 91.5t71.5 31.5q26 0 42 -9.5t27 -22t22.5 -22t28.5 -9.5q18 0 28.5 15.5t10.5 43.5h61q0 -55 -27 -89t-73 -34zM290 800l87 150h103l-114 -150h-76z" />
    <glyph glyph-name="uni1E4E" unicode="&#x1e4e;" horiz-adv-x="878" 
d="M439 -12q-78 0 -145.5 28.5t-118.5 80t-80 122t-29 154.5t29 154.5t80 122t118.5 79.5t145.5 28t145.5 -28.5t118.5 -80t80 -121.5t29 -154t-29 -154.5t-80 -122t-118.5 -80t-145.5 -28.5zM439 63q65 0 118.5 24t92.5 67t60.5 99t21.5 120q0 63 -21.5 119t-60.5 99
t-92.5 67t-118.5 24t-118.5 -24t-92.5 -67t-60.5 -99t-21.5 -119q0 -64 21.5 -120t60.5 -99t93 -67t118 -24zM498 849q-26 0 -42 9.5t-27 22t-22.5 22t-28.5 9.5q-16 0 -26 -13t-10 -46h-62q0 60 26.5 91.5t71.5 31.5q26 0 42 -9.5t27 -22t22.5 -22t28.5 -9.5
q18 0 28.5 15.5t10.5 43.5h61q0 -55 -27 -89t-73 -34zM299 1029v100h100v-100h-100zM479 1029v100h100v-100h-100z" />
    <glyph glyph-name="uni1E4F" unicode="&#x1e4f;" horiz-adv-x="655" 
d="M328 -12q-76 0 -138 36.5t-98.5 100t-36.5 144.5q0 80 36 143t97.5 99.5t139.5 36.5t139.5 -36t97 -99t35.5 -144q0 -82 -37 -145.5t-98.5 -99.5t-136.5 -36zM328 63q54 0 97.5 27t69 74t25.5 105t-25.5 104t-69 73t-97.5 27t-97.5 -27t-69.5 -73t-26 -104t26 -105
t69.5 -74t97.5 -27zM387 640q-26 0 -42 9.5t-27 22t-22.5 22t-28.5 9.5q-16 0 -26 -13t-10 -46h-62q0 60 26.5 91.5t71.5 31.5q26 0 42 -9.5t27 -22t22.5 -22t28.5 -9.5q18 0 28.5 15.5t10.5 43.5h61q0 -55 -27 -89t-73 -34zM188 820v100h100v-100h-100zM368 820v100h100
v-100h-100z" />
    <glyph glyph-name="uni1E50" unicode="&#x1e50;" horiz-adv-x="878" 
d="M439 -12q-78 0 -145.5 28.5t-118.5 80t-80 122t-29 154.5t29 154.5t80 122t118.5 79.5t145.5 28t145.5 -28.5t118.5 -80t80 -121.5t29 -154t-29 -154.5t-80 -122t-118.5 -80t-145.5 -28.5zM439 63q65 0 118.5 24t92.5 67t60.5 99t21.5 120q0 63 -21.5 119t-60.5 99
t-92.5 67t-118.5 24t-118.5 -24t-92.5 -67t-60.5 -99t-21.5 -119q0 -64 21.5 -120t60.5 -99t93 -67t118 -24zM304 869v70h270v-70h-270zM401 1009l-114 150h103l87 -150h-76z" />
    <glyph glyph-name="uni1E51" unicode="&#x1e51;" horiz-adv-x="655" 
d="M328 -12q-76 0 -138 36.5t-98.5 100t-36.5 144.5q0 80 36 143t97.5 99.5t139.5 36.5t139.5 -36t97 -99t35.5 -144q0 -82 -37 -145.5t-98.5 -99.5t-136.5 -36zM328 63q54 0 97.5 27t69 74t25.5 105t-25.5 104t-69 73t-97.5 27t-97.5 -27t-69.5 -73t-26 -104t26 -105
t69.5 -74t97.5 -27zM193 660v70h270v-70h-270zM290 800l-114 150h103l87 -150h-76z" />
    <glyph glyph-name="uni1E52" unicode="&#x1e52;" horiz-adv-x="878" 
d="M439 -12q-78 0 -145.5 28.5t-118.5 80t-80 122t-29 154.5t29 154.5t80 122t118.5 79.5t145.5 28t145.5 -28.5t118.5 -80t80 -121.5t29 -154t-29 -154.5t-80 -122t-118.5 -80t-145.5 -28.5zM439 63q65 0 118.5 24t92.5 67t60.5 99t21.5 120q0 63 -21.5 119t-60.5 99
t-92.5 67t-118.5 24t-118.5 -24t-92.5 -67t-60.5 -99t-21.5 -119q0 -64 21.5 -120t60.5 -99t93 -67t118 -24zM392 1009l87 150h103l-114 -150h-76zM295 869v70h270v-70h-270z" />
    <glyph glyph-name="uni1E53" unicode="&#x1e53;" horiz-adv-x="655" 
d="M328 -12q-76 0 -138 36.5t-98.5 100t-36.5 144.5q0 80 36 143t97.5 99.5t139.5 36.5t139.5 -36t97 -99t35.5 -144q0 -82 -37 -145.5t-98.5 -99.5t-136.5 -36zM328 63q54 0 97.5 27t69 74t25.5 105t-25.5 104t-69 73t-97.5 27t-97.5 -27t-69.5 -73t-26 -104t26 -105
t69.5 -74t97.5 -27zM281 800l87 150h103l-114 -150h-76zM184 660v70h270v-70h-270z" />
    <glyph glyph-name="uni1E5A" unicode="&#x1e5a;" horiz-adv-x="641" 
d="M88 0v745h256q73 0 128 -28.5t85.5 -80t30.5 -119.5q0 -79 -41.5 -135t-112.5 -79l174 -303h-94l-182 321l54 -31h-218v-290h-80zM168 365h180q48 0 84 18.5t56 53t20 81.5t-20 81t-56 52.5t-84 18.5h-180v-305zM265 -190v100h100v-100h-100z" />
    <glyph glyph-name="uni1E5B" unicode="&#x1e5b;" horiz-adv-x="338" 
d="M77 0v536h75v-88l-10 13q19 38 57.5 60t93.5 22h34v-75h-47q-58 0 -93 -36t-35 -102v-330h-75zM65 -190v100h100v-100h-100z" />
    <glyph glyph-name="uni1E5E" unicode="&#x1e5e;" horiz-adv-x="641" 
d="M88 0v745h256q73 0 128 -28.5t85.5 -80t30.5 -119.5q0 -79 -41.5 -135t-112.5 -79l174 -303h-94l-182 321l54 -31h-218v-290h-80zM168 365h180q48 0 84 18.5t56 53t20 81.5t-20 81t-56 52.5t-84 18.5h-180v-305zM180 -170v70h270v-70h-270z" />
    <glyph glyph-name="uni1E5F" unicode="&#x1e5f;" horiz-adv-x="338" 
d="M77 0v536h75v-88l-10 13q19 38 57.5 60t93.5 22h34v-75h-47q-58 0 -93 -36t-35 -102v-330h-75zM-20 -170v70h270v-70h-270z" />
    <glyph glyph-name="uni1E60" unicode="&#x1e60;" horiz-adv-x="646" 
d="M339 -12q-71 0 -129 27t-98 72.5t-57 100.5l72 27q26 -76 81 -115.5t131 -39.5q48 0 84.5 15.5t56.5 43.5t20 65q0 55 -30 85t-86 46l-134 40q-79 23 -121.5 77t-42.5 123q0 59 29 104.5t79.5 71.5t114.5 26q67 0 120.5 -24.5t90.5 -64.5t53 -89l-70 -28
q-24 66 -74.5 100t-118.5 34q-43 0 -75.5 -15t-50.5 -43t-18 -66q0 -46 29 -82.5t89 -54.5l118 -35q88 -26 133 -75t45 -123q0 -60 -30.5 -105.5t-85 -71.5t-125.5 -26zM273 849v100h100v-100h-100z" />
    <glyph glyph-name="uni1E61" unicode="&#x1e61;" horiz-adv-x="509" 
d="M263 -12q-77 0 -135 39t-84 106l63 30q23 -49 64.5 -78t91.5 -29q48 0 81 23.5t33 61.5q0 28 -16 44.5t-37 25.5t-37 13l-77 22q-74 21 -107 59t-33 88q0 47 24 82t65 54t91 19q68 0 123.5 -35.5t78.5 -98.5l-64 -30q-20 45 -57.5 70.5t-83.5 25.5q-45 0 -72 -23t-27 -58
q0 -27 14 -43t32.5 -24t32.5 -12l89 -26q65 -19 101.5 -59t36.5 -94q0 -44 -24.5 -79t-67.5 -54.5t-99 -19.5zM205 640v100h100v-100h-100z" />
    <glyph glyph-name="uni1E62" unicode="&#x1e62;" horiz-adv-x="646" 
d="M339 -12q-71 0 -129 27t-98 72.5t-57 100.5l72 27q26 -76 81 -115.5t131 -39.5q48 0 84.5 15.5t56.5 43.5t20 65q0 55 -30 85t-86 46l-134 40q-79 23 -121.5 77t-42.5 123q0 59 29 104.5t79.5 71.5t114.5 26q67 0 120.5 -24.5t90.5 -64.5t53 -89l-70 -28
q-24 66 -74.5 100t-118.5 34q-43 0 -75.5 -15t-50.5 -43t-18 -66q0 -46 29 -82.5t89 -54.5l118 -35q88 -26 133 -75t45 -123q0 -60 -30.5 -105.5t-85 -71.5t-125.5 -26zM289 -190v100h100v-100h-100z" />
    <glyph glyph-name="uni1E63" unicode="&#x1e63;" horiz-adv-x="509" 
d="M263 -12q-77 0 -135 39t-84 106l63 30q23 -49 64.5 -78t91.5 -29q48 0 81 23.5t33 61.5q0 28 -16 44.5t-37 25.5t-37 13l-77 22q-74 21 -107 59t-33 88q0 47 24 82t65 54t91 19q68 0 123.5 -35.5t78.5 -98.5l-64 -30q-20 45 -57.5 70.5t-83.5 25.5q-45 0 -72 -23t-27 -58
q0 -27 14 -43t32.5 -24t32.5 -12l89 -26q65 -19 101.5 -59t36.5 -94q0 -44 -24.5 -79t-67.5 -54.5t-99 -19.5zM205 -190v100h100v-100h-100z" />
    <glyph glyph-name="uni1E64" unicode="&#x1e64;" horiz-adv-x="646" 
d="M339 -12q-71 0 -129 27t-98 72.5t-57 100.5l72 27q26 -76 81 -115.5t131 -39.5q48 0 84.5 15.5t56.5 43.5t20 65q0 55 -30 85t-86 46l-134 40q-79 23 -121.5 77t-42.5 123q0 59 29 104.5t79.5 71.5t114.5 26q67 0 120.5 -24.5t90.5 -64.5t53 -89l-70 -28
q-24 66 -74.5 100t-118.5 34q-43 0 -75.5 -15t-50.5 -43t-18 -66q0 -46 29 -82.5t89 -54.5l118 -35q88 -26 133 -75t45 -123q0 -60 -30.5 -105.5t-85 -71.5t-125.5 -26zM273 849l87 150h103l-114 -150h-76zM183 949v100h100v-100h-100z" />
    <glyph glyph-name="uni1E65" unicode="&#x1e65;" horiz-adv-x="509" 
d="M263 -12q-77 0 -135 39t-84 106l63 30q23 -49 64.5 -78t91.5 -29q48 0 81 23.5t33 61.5q0 28 -16 44.5t-37 25.5t-37 13l-77 22q-74 21 -107 59t-33 88q0 47 24 82t65 54t91 19q68 0 123.5 -35.5t78.5 -98.5l-64 -30q-20 45 -57.5 70.5t-83.5 25.5q-45 0 -72 -23t-27 -58
q0 -27 14 -43t32.5 -24t32.5 -12l89 -26q65 -19 101.5 -59t36.5 -94q0 -44 -24.5 -79t-67.5 -54.5t-99 -19.5zM205 640l87 150h103l-114 -150h-76zM115 740v100h100v-100h-100z" />
    <glyph glyph-name="uni1E66" unicode="&#x1e66;" horiz-adv-x="646" 
d="M339 -12q-71 0 -129 27t-98 72.5t-57 100.5l72 27q26 -76 81 -115.5t131 -39.5q48 0 84.5 15.5t56.5 43.5t20 65q0 55 -30 85t-86 46l-134 40q-79 23 -121.5 77t-42.5 123q0 59 29 104.5t79.5 71.5t114.5 26q67 0 120.5 -24.5t90.5 -64.5t53 -89l-70 -28
q-24 66 -74.5 100t-118.5 34q-43 0 -75.5 -15t-50.5 -43t-18 -66q0 -46 29 -82.5t89 -54.5l118 -35q88 -26 133 -75t45 -123q0 -60 -30.5 -105.5t-85 -71.5t-125.5 -26zM280 849l-120 140h88l74 -81l75 81h88l-121 -140h-84zM273 1029v100h100v-100h-100z" />
    <glyph glyph-name="uni1E67" unicode="&#x1e67;" horiz-adv-x="509" 
d="M263 -12q-77 0 -135 39t-84 106l63 30q23 -49 64.5 -78t91.5 -29q48 0 81 23.5t33 61.5q0 28 -16 44.5t-37 25.5t-37 13l-77 22q-74 21 -107 59t-33 88q0 47 24 82t65 54t91 19q68 0 123.5 -35.5t78.5 -98.5l-64 -30q-20 45 -57.5 70.5t-83.5 25.5q-45 0 -72 -23t-27 -58
q0 -27 14 -43t32.5 -24t32.5 -12l89 -26q65 -19 101.5 -59t36.5 -94q0 -44 -24.5 -79t-67.5 -54.5t-99 -19.5zM212 640l-120 140h88l74 -81l75 81h88l-121 -140h-84zM205 820v100h100v-100h-100z" />
    <glyph glyph-name="uni1E68" unicode="&#x1e68;" horiz-adv-x="646" 
d="M339 -12q-71 0 -129 27t-98 72.5t-57 100.5l72 27q26 -76 81 -115.5t131 -39.5q48 0 84.5 15.5t56.5 43.5t20 65q0 55 -30 85t-86 46l-134 40q-79 23 -121.5 77t-42.5 123q0 59 29 104.5t79.5 71.5t114.5 26q67 0 120.5 -24.5t90.5 -64.5t53 -89l-70 -28
q-24 66 -74.5 100t-118.5 34q-43 0 -75.5 -15t-50.5 -43t-18 -66q0 -46 29 -82.5t89 -54.5l118 -35q88 -26 133 -75t45 -123q0 -60 -30.5 -105.5t-85 -71.5t-125.5 -26zM289 -190v100h100v-100h-100zM273 849v100h100v-100h-100z" />
    <glyph glyph-name="uni1E69" unicode="&#x1e69;" horiz-adv-x="509" 
d="M263 -12q-77 0 -135 39t-84 106l63 30q23 -49 64.5 -78t91.5 -29q48 0 81 23.5t33 61.5q0 28 -16 44.5t-37 25.5t-37 13l-77 22q-74 21 -107 59t-33 88q0 47 24 82t65 54t91 19q68 0 123.5 -35.5t78.5 -98.5l-64 -30q-20 45 -57.5 70.5t-83.5 25.5q-45 0 -72 -23t-27 -58
q0 -27 14 -43t32.5 -24t32.5 -12l89 -26q65 -19 101.5 -59t36.5 -94q0 -44 -24.5 -79t-67.5 -54.5t-99 -19.5zM205 -190v100h100v-100h-100zM205 640v100h100v-100h-100z" />
    <glyph glyph-name="uni1E6C" unicode="&#x1e6c;" horiz-adv-x="512" 
d="M217 0v670h-206v75h490v-75h-204v-670h-80zM206 -190v100h100v-100h-100z" />
    <glyph glyph-name="uni1E6D" unicode="&#x1e6d;" horiz-adv-x="388" 
d="M282 -6q-72 0 -111 42t-39 120v305h-99v75h25q34 0 54 22.5t20 56.5v45h75v-124h118v-75h-118v-305q0 -27 8 -47.5t27.5 -32.5t52.5 -12q8 0 19 1t19 2v-67q-12 -3 -27 -4.5t-24 -1.5zM224 -190v100h100v-100h-100z" />
    <glyph glyph-name="uni1E6E" unicode="&#x1e6e;" horiz-adv-x="512" 
d="M217 0v670h-206v75h490v-75h-204v-670h-80zM121 -170v70h270v-70h-270z" />
    <glyph glyph-name="uni1E6F" unicode="&#x1e6f;" horiz-adv-x="388" 
d="M282 -6q-72 0 -111 42t-39 120v305h-99v75h25q34 0 54 22.5t20 56.5v45h75v-124h118v-75h-118v-305q0 -27 8 -47.5t27.5 -32.5t52.5 -12q8 0 19 1t19 2v-67q-12 -3 -27 -4.5t-24 -1.5zM139 -170v70h270v-70h-270z" />
    <glyph glyph-name="uni1E78" unicode="&#x1e78;" horiz-adv-x="700" 
d="M350 -12q-79 0 -139 33t-93 90.5t-33 131.5v502h80v-502q0 -54 23.5 -94.5t65 -63t96.5 -22.5t96.5 22.5t65 63t23.5 94.5v502h80v-502q0 -74 -33 -131.5t-92.5 -90.5t-139.5 -33zM409 849q-26 0 -42 9.5t-27 22t-22.5 22t-28.5 9.5q-16 0 -26 -13t-10 -46h-62
q0 60 26.5 91.5t71.5 31.5q26 0 42 -9.5t27 -22t22.5 -22t28.5 -9.5q18 0 28.5 15.5t10.5 43.5h61q0 -55 -27 -89t-73 -34zM312 1009l87 150h103l-114 -150h-76z" />
    <glyph glyph-name="uni1E79" unicode="&#x1e79;" 
d="M267 -12q-56 0 -102 26.5t-72.5 74t-26.5 109.5v338h75v-329q0 -43 17.5 -75.5t49 -50.5t72.5 -18t73 18.5t50 53t18 82.5v319h75v-536h-75v104l17 -4q-19 -52 -65 -82t-106 -30zM346 640q-26 0 -42 9.5t-27 22t-22.5 22t-28.5 9.5q-16 0 -26 -13t-10 -46h-62
q0 60 26.5 91.5t71.5 31.5q26 0 42 -9.5t27 -22t22.5 -22t28.5 -9.5q18 0 28.5 15.5t10.5 43.5h61q0 -55 -27 -89t-73 -34zM249 800l87 150h103l-114 -150h-76z" />
    <glyph glyph-name="uni1E7A" unicode="&#x1e7a;" horiz-adv-x="700" 
d="M350 -12q-79 0 -139 33t-93 90.5t-33 131.5v502h80v-502q0 -54 23.5 -94.5t65 -63t96.5 -22.5t96.5 22.5t65 63t23.5 94.5v502h80v-502q0 -74 -33 -131.5t-92.5 -90.5t-139.5 -33zM215 869v70h270v-70h-270zM210 1029v100h100v-100h-100zM390 1029v100h100v-100h-100z
" />
    <glyph glyph-name="uni1E7B" unicode="&#x1e7b;" 
d="M267 -12q-56 0 -102 26.5t-72.5 74t-26.5 109.5v338h75v-329q0 -43 17.5 -75.5t49 -50.5t72.5 -18t73 18.5t50 53t18 82.5v319h75v-536h-75v104l17 -4q-19 -52 -65 -82t-106 -30zM152 660v70h270v-70h-270zM147 820v100h100v-100h-100zM327 820v100h100v-100h-100z" />
    <glyph glyph-name="Wgrave" unicode="&#x1e80;" horiz-adv-x="984" 
d="M225 0l-214 745h81l185 -667h-17l190 667h85l189 -667h-18l186 667h81l-214 -745h-85l-191 670h18l-191 -670h-85zM454 849l-114 150h103l87 -150h-76z" />
    <glyph glyph-name="wgrave" unicode="&#x1e81;" horiz-adv-x="797" 
d="M195 0l-184 536h85l152 -469h-30l143 469h75l143 -469h-30l153 469h84l-184 -536h-75l-139 459h21l-139 -459h-75zM361 640l-114 150h103l87 -150h-76z" />
    <glyph glyph-name="Wacute" unicode="&#x1e82;" horiz-adv-x="984" 
d="M225 0l-214 745h81l185 -667h-17l190 667h85l189 -667h-18l186 667h81l-214 -745h-85l-191 670h18l-191 -670h-85zM454 849l87 150h103l-114 -150h-76z" />
    <glyph glyph-name="wacute" unicode="&#x1e83;" horiz-adv-x="797" 
d="M195 0l-184 536h85l152 -469h-30l143 469h75l143 -469h-30l153 469h84l-184 -536h-75l-139 459h21l-139 -459h-75zM361 640l87 150h103l-114 -150h-76z" />
    <glyph glyph-name="Wdieresis" unicode="&#x1e84;" horiz-adv-x="984" 
d="M225 0l-214 745h81l185 -667h-17l190 667h85l189 -667h-18l186 667h81l-214 -745h-85l-191 670h18l-191 -670h-85zM352 849v100h100v-100h-100zM532 849v100h100v-100h-100z" />
    <glyph glyph-name="wdieresis" unicode="&#x1e85;" horiz-adv-x="797" 
d="M195 0l-184 536h85l152 -469h-30l143 469h75l143 -469h-30l153 469h84l-184 -536h-75l-139 459h21l-139 -459h-75zM259 640v100h100v-100h-100zM439 640v100h100v-100h-100z" />
    <glyph glyph-name="uni1E8E" unicode="&#x1e8e;" horiz-adv-x="623" 
d="M272 0v346l-261 399h89l228 -347h-32l227 347h89l-260 -399v-346h-80zM262 849v100h100v-100h-100z" />
    <glyph glyph-name="uni1E8F" unicode="&#x1e8f;" horiz-adv-x="536" 
d="M88 -220q-16 0 -32.5 2.5t-32.5 8.5v70q10 -1 25.5 -3.5t31.5 -2.5q49 0 75 20.5t51 78.5l34 80l-2 -66l-227 568h81l186 -469h-21l185 469h83l-245 -604q-16 -39 -40.5 -74t-61.5 -56.5t-90 -21.5zM218 640v100h100v-100h-100z" />
    <glyph glyph-name="uni1E92" unicode="&#x1e92;" horiz-adv-x="584" 
d="M22 0v54l426 616h-401v75h506v-54l-425 -616h434v-75h-540zM242 -190v100h100v-100h-100z" />
    <glyph glyph-name="uni1E93" unicode="&#x1e93;" horiz-adv-x="449" 
d="M22 0v65l323 425l14 -29h-320v75h386v-65l-322 -425l-14 29h338v-75h-405zM169 -190v100h100v-100h-100z" />
    <glyph glyph-name="uni1E97" unicode="&#x1e97;" horiz-adv-x="388" 
d="M282 -6q-72 0 -111 42t-39 120v305h-99v75h25q34 0 54 22.5t20 56.5v45h75v-124h118v-75h-118v-305q0 -27 8 -47.5t27.5 -32.5t52.5 -12q8 0 19 1t19 2v-67q-12 -3 -27 -4.5t-24 -1.5zM30 764v100h100v-100h-100zM210 764v100h100v-100h-100z" />
    <glyph glyph-name="uni1E9E" unicode="&#x1e9e;" horiz-adv-x="1292" 
d="M339 -12q-71 0 -129 27t-98 72.5t-57 100.5l72 27q26 -76 81 -115.5t131 -39.5q48 0 84.5 15.5t56.5 43.5t20 65q0 55 -30 85t-86 46l-134 40q-79 23 -121.5 77t-42.5 123q0 59 29 104.5t79.5 71.5t114.5 26q67 0 120.5 -24.5t90.5 -64.5t53 -89l-70 -28
q-24 66 -74.5 100t-118.5 34q-43 0 -75.5 -15t-50.5 -43t-18 -66q0 -46 29 -82.5t89 -54.5l118 -35q88 -26 133 -75t45 -123q0 -60 -30.5 -105.5t-85 -71.5t-125.5 -26zM985 -12q-71 0 -129 27t-98 72.5t-57 100.5l72 27q26 -76 81 -115.5t131 -39.5q48 0 84.5 15.5
t56.5 43.5t20 65q0 55 -30 85t-86 46l-134 40q-79 23 -121.5 77t-42.5 123q0 59 29 104.5t79.5 71.5t114.5 26q67 0 120.5 -24.5t90.5 -64.5t53 -89l-70 -28q-24 66 -74.5 100t-118.5 34q-43 0 -75.5 -15t-50.5 -43t-18 -66q0 -46 29 -82.5t89 -54.5l118 -35q88 -26 133 -75
t45 -123q0 -60 -30.5 -105.5t-85 -71.5t-125.5 -26z" />
    <glyph glyph-name="uni1EA0" unicode="&#x1ea0;" horiz-adv-x="652" 
d="M11 0l272 745h86l272 -745h-84l-64 182h-333l-65 -182h-84zM186 257h279l-151 428h24zM276 -190v100h100v-100h-100z" />
    <glyph glyph-name="uni1EA1" unicode="&#x1ea1;" horiz-adv-x="572" 
d="M232 -12q-51 0 -91 19.5t-63 53.5t-23 78q0 42 18 76.5t56 58.5t97 34l210 35v-68l-192 -32q-58 -10 -83.5 -37t-25.5 -64q0 -36 28.5 -61t73.5 -25q55 0 96 23.5t64 63.5t23 89v136q0 48 -35 78t-91 30q-49 0 -86 -24.5t-55 -63.5l-68 37q15 34 47.5 62t74.5 44.5
t87 16.5q59 0 104.5 -23t71 -63.5t25.5 -93.5v-368h-75v107l11 -11q-14 -30 -43.5 -54.5t-69 -39t-86.5 -14.5zM236 -190v100h100v-100h-100z" />
    <glyph glyph-name="uni1EA2" unicode="&#x1ea2;" horiz-adv-x="652" 
d="M11 0l272 745h86l272 -745h-84l-64 182h-333l-65 -182h-84zM186 257h279l-151 428h24zM332 809l-33 45q25 8 37 22t12 34q0 17 -14 29.5t-37 12.5q-12 0 -23 -2t-29 -10l-12 51q20 11 38.5 14.5t34.5 3.5q50 0 81 -26.5t31 -68.5q0 -34 -24 -62.5t-62 -42.5z" />
    <glyph glyph-name="uni1EA3" unicode="&#x1ea3;" horiz-adv-x="572" 
d="M232 -12q-51 0 -91 19.5t-63 53.5t-23 78q0 42 18 76.5t56 58.5t97 34l210 35v-68l-192 -32q-58 -10 -83.5 -37t-25.5 -64q0 -36 28.5 -61t73.5 -25q55 0 96 23.5t64 63.5t23 89v136q0 48 -35 78t-91 30q-49 0 -86 -24.5t-55 -63.5l-68 37q15 34 47.5 62t74.5 44.5
t87 16.5q59 0 104.5 -23t71 -63.5t25.5 -93.5v-368h-75v107l11 -11q-14 -30 -43.5 -54.5t-69 -39t-86.5 -14.5zM300 600l-33 45q25 8 37 22t12 34q0 17 -14 29.5t-37 12.5q-12 0 -23 -2t-29 -10l-12 51q20 11 38.5 14.5t34.5 3.5q50 0 81 -26.5t31 -68.5q0 -34 -24 -62.5
t-62 -42.5z" />
    <glyph glyph-name="uni1EA4" unicode="&#x1ea4;" horiz-adv-x="652" 
d="M11 0l272 745h86l272 -745h-84l-64 182h-333l-65 -182h-84zM186 257h279l-151 428h24zM164 849l120 140h84l121 -140h-88l-75 81l-74 -81h-88zM448 919l67 130h103l-94 -130h-76z" />
    <glyph glyph-name="uni1EA5" unicode="&#x1ea5;" horiz-adv-x="572" 
d="M232 -12q-51 0 -91 19.5t-63 53.5t-23 78q0 42 18 76.5t56 58.5t97 34l210 35v-68l-192 -32q-58 -10 -83.5 -37t-25.5 -64q0 -36 28.5 -61t73.5 -25q55 0 96 23.5t64 63.5t23 89v136q0 48 -35 78t-91 30q-49 0 -86 -24.5t-55 -63.5l-68 37q15 34 47.5 62t74.5 44.5
t87 16.5q59 0 104.5 -23t71 -63.5t25.5 -93.5v-368h-75v107l11 -11q-14 -30 -43.5 -54.5t-69 -39t-86.5 -14.5zM132 640l120 140h84l121 -140h-88l-75 81l-74 -81h-88zM416 710l67 130h103l-94 -130h-76z" />
    <glyph glyph-name="uni1EA6" unicode="&#x1ea6;" horiz-adv-x="652" 
d="M11 0l272 745h86l272 -745h-84l-64 182h-333l-65 -182h-84zM186 257h279l-151 428h24zM164 849l120 140h84l121 -140h-88l-75 81l-74 -81h-88zM510 919l-94 130h103l67 -130h-76z" />
    <glyph glyph-name="uni1EA7" unicode="&#x1ea7;" horiz-adv-x="572" 
d="M232 -12q-51 0 -91 19.5t-63 53.5t-23 78q0 42 18 76.5t56 58.5t97 34l210 35v-68l-192 -32q-58 -10 -83.5 -37t-25.5 -64q0 -36 28.5 -61t73.5 -25q55 0 96 23.5t64 63.5t23 89v136q0 48 -35 78t-91 30q-49 0 -86 -24.5t-55 -63.5l-68 37q15 34 47.5 62t74.5 44.5
t87 16.5q59 0 104.5 -23t71 -63.5t25.5 -93.5v-368h-75v107l11 -11q-14 -30 -43.5 -54.5t-69 -39t-86.5 -14.5zM132 640l120 140h84l121 -140h-88l-75 81l-74 -81h-88zM478 710l-94 130h103l67 -130h-76z" />
    <glyph glyph-name="uni1EA8" unicode="&#x1ea8;" horiz-adv-x="652" 
d="M11 0l272 745h86l272 -745h-84l-64 182h-333l-65 -182h-84zM186 257h279l-151 428h24zM164 849l120 140h84l121 -140h-88l-75 81l-74 -81h-88zM473 919l-33 45q25 8 37 22t12 34q0 17 -14 29.5t-37 12.5q-12 0 -23 -2t-29 -10l-12 51q20 11 38.5 14.5t34.5 3.5
q50 0 81 -26.5t31 -68.5q0 -34 -24 -62.5t-62 -42.5z" />
    <glyph glyph-name="uni1EA9" unicode="&#x1ea9;" horiz-adv-x="572" 
d="M232 -12q-51 0 -91 19.5t-63 53.5t-23 78q0 42 18 76.5t56 58.5t97 34l210 35v-68l-192 -32q-58 -10 -83.5 -37t-25.5 -64q0 -36 28.5 -61t73.5 -25q55 0 96 23.5t64 63.5t23 89v136q0 48 -35 78t-91 30q-49 0 -86 -24.5t-55 -63.5l-68 37q15 34 47.5 62t74.5 44.5
t87 16.5q59 0 104.5 -23t71 -63.5t25.5 -93.5v-368h-75v107l11 -11q-14 -30 -43.5 -54.5t-69 -39t-86.5 -14.5zM132 640l120 140h84l121 -140h-88l-75 81l-74 -81h-88zM441 710l-33 45q25 8 37 22t12 34q0 17 -14 29.5t-37 12.5q-12 0 -23 -2t-29 -10l-12 51
q20 11 38.5 14.5t34.5 3.5q50 0 81 -26.5t31 -68.5q0 -34 -24 -62.5t-62 -42.5z" />
    <glyph glyph-name="uni1EAA" unicode="&#x1eaa;" horiz-adv-x="652" 
d="M11 0l272 745h86l272 -745h-84l-64 182h-333l-65 -182h-84zM186 257h279l-151 428h24zM164 849l120 140h84l121 -140h-88l-75 81l-74 -81h-88zM377 1052q-21 0 -34 9.5t-23 22t-19 22t-23 9.5q-13 0 -21 -13.5t-8 -45.5h-60q0 40 11 67.5t30 41.5t44 14q22 0 35.5 -9.5
t23 -22t19 -22t22.5 -9.5q15 0 22.5 15.5t7.5 43.5h60q0 -55 -24.5 -89t-62.5 -34z" />
    <glyph glyph-name="uni1EAB" unicode="&#x1eab;" horiz-adv-x="572" 
d="M232 -12q-51 0 -91 19.5t-63 53.5t-23 78q0 42 18 76.5t56 58.5t97 34l210 35v-68l-192 -32q-58 -10 -83.5 -37t-25.5 -64q0 -36 28.5 -61t73.5 -25q55 0 96 23.5t64 63.5t23 89v136q0 48 -35 78t-91 30q-49 0 -86 -24.5t-55 -63.5l-68 37q15 34 47.5 62t74.5 44.5
t87 16.5q59 0 104.5 -23t71 -63.5t25.5 -93.5v-368h-75v107l11 -11q-14 -30 -43.5 -54.5t-69 -39t-86.5 -14.5zM132 640l120 140h84l121 -140h-88l-75 81l-74 -81h-88zM345 843q-21 0 -34 9.5t-23 22t-19 22t-23 9.5q-13 0 -21 -13.5t-8 -45.5h-60q0 40 11 67.5t30 41.5
t44 14q22 0 35.5 -9.5t23 -22t19 -22t22.5 -9.5q15 0 22.5 15.5t7.5 43.5h60q0 -55 -24.5 -89t-62.5 -34z" />
    <glyph glyph-name="uni1EAC" unicode="&#x1eac;" horiz-adv-x="652" 
d="M11 0l272 745h86l272 -745h-84l-64 182h-333l-65 -182h-84zM186 257h279l-151 428h24zM276 -190v100h100v-100h-100zM164 849l120 150h84l121 -150h-88l-75 91l-74 -91h-88z" />
    <glyph glyph-name="uni1EAD" unicode="&#x1ead;" horiz-adv-x="572" 
d="M232 -12q-51 0 -91 19.5t-63 53.5t-23 78q0 42 18 76.5t56 58.5t97 34l210 35v-68l-192 -32q-58 -10 -83.5 -37t-25.5 -64q0 -36 28.5 -61t73.5 -25q55 0 96 23.5t64 63.5t23 89v136q0 48 -35 78t-91 30q-49 0 -86 -24.5t-55 -63.5l-68 37q15 34 47.5 62t74.5 44.5
t87 16.5q59 0 104.5 -23t71 -63.5t25.5 -93.5v-368h-75v107l11 -11q-14 -30 -43.5 -54.5t-69 -39t-86.5 -14.5zM236 -190v100h100v-100h-100zM132 640l120 150h84l121 -150h-88l-75 91l-74 -91h-88z" />
    <glyph glyph-name="uni1EAE" unicode="&#x1eae;" horiz-adv-x="652" 
d="M11 0l272 745h86l272 -745h-84l-64 182h-333l-65 -182h-84zM186 257h279l-151 428h24zM326 849q-51 0 -86 16.5t-53.5 46t-18.5 67.5h72q0 -33 22.5 -51.5t63.5 -18.5t63.5 18.5t22.5 51.5h71q0 -38 -18 -67.5t-53 -46t-86 -16.5zM288 1009l87 150h103l-114 -150h-76z
" />
    <glyph glyph-name="uni1EAF" unicode="&#x1eaf;" horiz-adv-x="572" 
d="M232 -12q-51 0 -91 19.5t-63 53.5t-23 78q0 42 18 76.5t56 58.5t97 34l210 35v-68l-192 -32q-58 -10 -83.5 -37t-25.5 -64q0 -36 28.5 -61t73.5 -25q55 0 96 23.5t64 63.5t23 89v136q0 48 -35 78t-91 30q-49 0 -86 -24.5t-55 -63.5l-68 37q15 34 47.5 62t74.5 44.5
t87 16.5q59 0 104.5 -23t71 -63.5t25.5 -93.5v-368h-75v107l11 -11q-14 -30 -43.5 -54.5t-69 -39t-86.5 -14.5zM294 640q-51 0 -86 16.5t-53.5 46t-18.5 67.5h72q0 -33 22.5 -51.5t63.5 -18.5t63.5 18.5t22.5 51.5h71q0 -38 -18 -67.5t-53 -46t-86 -16.5zM256 800l87 150
h103l-114 -150h-76z" />
    <glyph glyph-name="uni1EB0" unicode="&#x1eb0;" horiz-adv-x="652" 
d="M11 0l272 745h86l272 -745h-84l-64 182h-333l-65 -182h-84zM186 257h279l-151 428h24zM326 849q-50 0 -85.5 16.5t-53.5 46t-18 67.5h71q0 -33 23 -51.5t63 -18.5q41 0 63.5 18.5t22.5 51.5h72q0 -38 -18 -67.5t-53.5 -46t-86.5 -16.5zM288 1009l-114 150h103l87 -150
h-76z" />
    <glyph glyph-name="uni1EB1" unicode="&#x1eb1;" horiz-adv-x="572" 
d="M232 -12q-51 0 -91 19.5t-63 53.5t-23 78q0 42 18 76.5t56 58.5t97 34l210 35v-68l-192 -32q-58 -10 -83.5 -37t-25.5 -64q0 -36 28.5 -61t73.5 -25q55 0 96 23.5t64 63.5t23 89v136q0 48 -35 78t-91 30q-49 0 -86 -24.5t-55 -63.5l-68 37q15 34 47.5 62t74.5 44.5
t87 16.5q59 0 104.5 -23t71 -63.5t25.5 -93.5v-368h-75v107l11 -11q-14 -30 -43.5 -54.5t-69 -39t-86.5 -14.5zM294 640q-50 0 -85.5 16.5t-53.5 46t-18 67.5h71q0 -33 23 -51.5t63 -18.5q41 0 63.5 18.5t22.5 51.5h72q0 -38 -18 -67.5t-53.5 -46t-86.5 -16.5zM256 800
l-114 150h103l87 -150h-76z" />
    <glyph glyph-name="uni1EB2" unicode="&#x1eb2;" horiz-adv-x="652" 
d="M11 0l272 745h86l272 -745h-84l-64 182h-333l-65 -182h-84zM186 257h279l-151 428h24zM325 849q-50 0 -85.5 16.5t-53.5 46t-18 67.5h71q0 -33 23 -51.5t63 -18.5q41 0 63.5 18.5t22.5 51.5h72q0 -38 -18 -67.5t-53.5 -46t-86.5 -16.5zM332 989l-33 45q25 8 37 22t12 34
q0 17 -14 29.5t-37 12.5q-12 0 -23 -2t-29 -10l-12 51q20 11 38.5 14.5t34.5 3.5q50 0 81 -26.5t31 -68.5q0 -34 -24 -62.5t-62 -42.5z" />
    <glyph glyph-name="uni1EB3" unicode="&#x1eb3;" horiz-adv-x="572" 
d="M232 -12q-51 0 -91 19.5t-63 53.5t-23 78q0 42 18 76.5t56 58.5t97 34l210 35v-68l-192 -32q-58 -10 -83.5 -37t-25.5 -64q0 -36 28.5 -61t73.5 -25q55 0 96 23.5t64 63.5t23 89v136q0 48 -35 78t-91 30q-49 0 -86 -24.5t-55 -63.5l-68 37q15 34 47.5 62t74.5 44.5
t87 16.5q59 0 104.5 -23t71 -63.5t25.5 -93.5v-368h-75v107l11 -11q-14 -30 -43.5 -54.5t-69 -39t-86.5 -14.5zM293 640q-50 0 -85.5 16.5t-53.5 46t-18 67.5h71q0 -33 23 -51.5t63 -18.5q41 0 63.5 18.5t22.5 51.5h72q0 -38 -18 -67.5t-53.5 -46t-86.5 -16.5zM300 780
l-33 45q25 8 37 22t12 34q0 17 -14 29.5t-37 12.5q-12 0 -23 -2t-29 -10l-12 51q20 11 38.5 14.5t34.5 3.5q50 0 81 -26.5t31 -68.5q0 -34 -24 -62.5t-62 -42.5z" />
    <glyph glyph-name="uni1EB4" unicode="&#x1eb4;" horiz-adv-x="652" 
d="M11 0l272 745h86l272 -745h-84l-64 182h-333l-65 -182h-84zM186 257h279l-151 428h24zM375 1052q-21 0 -34 9.5t-23 22t-19 22t-23 9.5q-13 0 -21 -13.5t-8 -45.5h-60q0 40 11 67.5t30 41.5t44 14q22 0 35.5 -9.5t23 -22t19 -22t22.5 -9.5q15 0 22.5 15.5t7.5 43.5h60
q0 -55 -24.5 -89t-62.5 -34zM325 849q-50 0 -85.5 16.5t-53.5 46t-18 67.5h71q0 -33 23 -51.5t63 -18.5q41 0 63.5 18.5t22.5 51.5h72q0 -38 -18 -67.5t-53.5 -46t-86.5 -16.5z" />
    <glyph glyph-name="uni1EB5" unicode="&#x1eb5;" horiz-adv-x="572" 
d="M232 -12q-51 0 -91 19.5t-63 53.5t-23 78q0 42 18 76.5t56 58.5t97 34l210 35v-68l-192 -32q-58 -10 -83.5 -37t-25.5 -64q0 -36 28.5 -61t73.5 -25q55 0 96 23.5t64 63.5t23 89v136q0 48 -35 78t-91 30q-49 0 -86 -24.5t-55 -63.5l-68 37q15 34 47.5 62t74.5 44.5
t87 16.5q59 0 104.5 -23t71 -63.5t25.5 -93.5v-368h-75v107l11 -11q-14 -30 -43.5 -54.5t-69 -39t-86.5 -14.5zM343 843q-21 0 -34 9.5t-23 22t-19 22t-23 9.5q-13 0 -21 -13.5t-8 -45.5h-60q0 40 11 67.5t30 41.5t44 14q22 0 35.5 -9.5t23 -22t19 -22t22.5 -9.5
q15 0 22.5 15.5t7.5 43.5h60q0 -55 -24.5 -89t-62.5 -34zM293 640q-50 0 -85.5 16.5t-53.5 46t-18 67.5h71q0 -33 23 -51.5t63 -18.5q41 0 63.5 18.5t22.5 51.5h72q0 -38 -18 -67.5t-53.5 -46t-86.5 -16.5z" />
    <glyph glyph-name="uni1EB6" unicode="&#x1eb6;" horiz-adv-x="652" 
d="M11 0l272 745h86l272 -745h-84l-64 182h-333l-65 -182h-84zM186 257h279l-151 428h24zM276 -190v100h100v-100h-100zM326 849q-51 0 -86 19t-53.5 53t-18.5 78h72q0 -43 22.5 -66.5t63.5 -23.5t63.5 23.5t22.5 66.5h71q0 -44 -18 -78t-53 -53t-86 -19z" />
    <glyph glyph-name="uni1EB7" unicode="&#x1eb7;" horiz-adv-x="572" 
d="M232 -12q-51 0 -91 19.5t-63 53.5t-23 78q0 42 18 76.5t56 58.5t97 34l210 35v-68l-192 -32q-58 -10 -83.5 -37t-25.5 -64q0 -36 28.5 -61t73.5 -25q55 0 96 23.5t64 63.5t23 89v136q0 48 -35 78t-91 30q-49 0 -86 -24.5t-55 -63.5l-68 37q15 34 47.5 62t74.5 44.5
t87 16.5q59 0 104.5 -23t71 -63.5t25.5 -93.5v-368h-75v107l11 -11q-14 -30 -43.5 -54.5t-69 -39t-86.5 -14.5zM236 -190v100h100v-100h-100zM294 640q-51 0 -86 19t-53.5 53t-18.5 78h72q0 -43 22.5 -66.5t63.5 -23.5t63.5 23.5t22.5 66.5h71q0 -44 -18 -78t-53 -53
t-86 -19z" />
    <glyph glyph-name="uni1EB8" unicode="&#x1eb8;" horiz-adv-x="612" 
d="M88 0v745h480v-75h-400v-259h380v-75h-380v-261h400v-75h-480zM278 -190v100h100v-100h-100z" />
    <glyph glyph-name="uni1EB9" unicode="&#x1eb9;" horiz-adv-x="615" 
d="M321 -12q-75 0 -135.5 36.5t-95.5 100.5t-35 145t34 143.5t92.5 98.5t131.5 36q58 0 103.5 -21.5t77.5 -58t49 -82t17 -93.5q0 -10 -1 -22.5t-3 -25.5h-453v70h410l-36 -30q9 55 -12.5 98.5t-61.5 69t-90 25.5t-92.5 -26t-66.5 -72.5t-19 -110.5q-5 -64 20.5 -111.5
t70 -73.5t95.5 -26q59 0 99 28t65 70l64 -34q-16 -36 -49 -66.5t-78.5 -49t-100.5 -18.5zM258 -190v100h100v-100h-100z" />
    <glyph glyph-name="uni1EBA" unicode="&#x1eba;" horiz-adv-x="612" 
d="M88 0v745h480v-75h-400v-259h380v-75h-380v-261h400v-75h-480zM334 809l-33 45q25 8 37 22t12 34q0 17 -14 29.5t-37 12.5q-12 0 -23 -2t-29 -10l-12 51q20 11 38.5 14.5t34.5 3.5q50 0 81 -26.5t31 -68.5q0 -34 -24 -62.5t-62 -42.5z" />
    <glyph glyph-name="uni1EBB" unicode="&#x1ebb;" horiz-adv-x="615" 
d="M321 -12q-75 0 -135.5 36.5t-95.5 100.5t-35 145t34 143.5t92.5 98.5t131.5 36q58 0 103.5 -21.5t77.5 -58t49 -82t17 -93.5q0 -10 -1 -22.5t-3 -25.5h-453v70h410l-36 -30q9 55 -12.5 98.5t-61.5 69t-90 25.5t-92.5 -26t-66.5 -72.5t-19 -110.5q-5 -64 20.5 -111.5
t70 -73.5t95.5 -26q59 0 99 28t65 70l64 -34q-16 -36 -49 -66.5t-78.5 -49t-100.5 -18.5zM314 600l-33 45q25 8 37 22t12 34q0 17 -14 29.5t-37 12.5q-12 0 -23 -2t-29 -10l-12 51q20 11 38.5 14.5t34.5 3.5q50 0 81 -26.5t31 -68.5q0 -34 -24 -62.5t-62 -42.5z" />
    <glyph glyph-name="uni1EBC" unicode="&#x1ebc;" horiz-adv-x="612" 
d="M88 0v745h480v-75h-400v-259h380v-75h-380v-261h400v-75h-480zM387 849q-26 0 -42 9.5t-27 22t-22.5 22t-28.5 9.5q-16 0 -26 -13t-10 -46h-62q0 60 26.5 91.5t71.5 31.5q26 0 42 -9.5t27 -22t22.5 -22t28.5 -9.5q18 0 28.5 15.5t10.5 43.5h61q0 -55 -27 -89t-73 -34z
" />
    <glyph glyph-name="uni1EBD" unicode="&#x1ebd;" horiz-adv-x="615" 
d="M321 -12q-75 0 -135.5 36.5t-95.5 100.5t-35 145t34 143.5t92.5 98.5t131.5 36q58 0 103.5 -21.5t77.5 -58t49 -82t17 -93.5q0 -10 -1 -22.5t-3 -25.5h-453v70h410l-36 -30q9 55 -12.5 98.5t-61.5 69t-90 25.5t-92.5 -26t-66.5 -72.5t-19 -110.5q-5 -64 20.5 -111.5
t70 -73.5t95.5 -26q59 0 99 28t65 70l64 -34q-16 -36 -49 -66.5t-78.5 -49t-100.5 -18.5zM367 640q-26 0 -42 9.5t-27 22t-22.5 22t-28.5 9.5q-16 0 -26 -13t-10 -46h-62q0 60 26.5 91.5t71.5 31.5q26 0 42 -9.5t27 -22t22.5 -22t28.5 -9.5q18 0 28.5 15.5t10.5 43.5h61
q0 -55 -27 -89t-73 -34z" />
    <glyph glyph-name="uni1EBE" unicode="&#x1ebe;" horiz-adv-x="612" 
d="M88 0v745h480v-75h-400v-259h380v-75h-380v-261h400v-75h-480zM166 849l120 140h84l121 -140h-88l-75 81l-74 -81h-88zM450 919l67 130h103l-94 -130h-76z" />
    <glyph glyph-name="uni1EBF" unicode="&#x1ebf;" horiz-adv-x="615" 
d="M321 -12q-75 0 -135.5 36.5t-95.5 100.5t-35 145t34 143.5t92.5 98.5t131.5 36q58 0 103.5 -21.5t77.5 -58t49 -82t17 -93.5q0 -10 -1 -22.5t-3 -25.5h-453v70h410l-36 -30q9 55 -12.5 98.5t-61.5 69t-90 25.5t-92.5 -26t-66.5 -72.5t-19 -110.5q-5 -64 20.5 -111.5
t70 -73.5t95.5 -26q59 0 99 28t65 70l64 -34q-16 -36 -49 -66.5t-78.5 -49t-100.5 -18.5zM146 640l120 140h84l121 -140h-88l-75 81l-74 -81h-88zM430 710l67 130h103l-94 -130h-76z" />
    <glyph glyph-name="uni1EC0" unicode="&#x1ec0;" horiz-adv-x="612" 
d="M88 0v745h480v-75h-400v-259h380v-75h-380v-261h400v-75h-480zM166 849l120 140h84l121 -140h-88l-75 81l-74 -81h-88zM512 919l-94 130h103l67 -130h-76z" />
    <glyph glyph-name="uni1EC1" unicode="&#x1ec1;" horiz-adv-x="615" 
d="M321 -12q-75 0 -135.5 36.5t-95.5 100.5t-35 145t34 143.5t92.5 98.5t131.5 36q58 0 103.5 -21.5t77.5 -58t49 -82t17 -93.5q0 -10 -1 -22.5t-3 -25.5h-453v70h410l-36 -30q9 55 -12.5 98.5t-61.5 69t-90 25.5t-92.5 -26t-66.5 -72.5t-19 -110.5q-5 -64 20.5 -111.5
t70 -73.5t95.5 -26q59 0 99 28t65 70l64 -34q-16 -36 -49 -66.5t-78.5 -49t-100.5 -18.5zM146 640l120 140h84l121 -140h-88l-75 81l-74 -81h-88zM492 710l-94 130h103l67 -130h-76z" />
    <glyph glyph-name="uni1EC2" unicode="&#x1ec2;" horiz-adv-x="612" 
d="M88 0v745h480v-75h-400v-259h380v-75h-380v-261h400v-75h-480zM166 849l120 140h84l121 -140h-88l-75 81l-74 -81h-88zM475 919l-33 45q25 8 37 22t12 34q0 17 -14 29.5t-37 12.5q-12 0 -23 -2t-29 -10l-12 51q20 11 38.5 14.5t34.5 3.5q50 0 81 -26.5t31 -68.5
q0 -34 -24 -62.5t-62 -42.5z" />
    <glyph glyph-name="uni1EC3" unicode="&#x1ec3;" horiz-adv-x="615" 
d="M321 -12q-75 0 -135.5 36.5t-95.5 100.5t-35 145t34 143.5t92.5 98.5t131.5 36q58 0 103.5 -21.5t77.5 -58t49 -82t17 -93.5q0 -10 -1 -22.5t-3 -25.5h-453v70h410l-36 -30q9 55 -12.5 98.5t-61.5 69t-90 25.5t-92.5 -26t-66.5 -72.5t-19 -110.5q-5 -64 20.5 -111.5
t70 -73.5t95.5 -26q59 0 99 28t65 70l64 -34q-16 -36 -49 -66.5t-78.5 -49t-100.5 -18.5zM146 640l120 140h84l121 -140h-88l-75 81l-74 -81h-88zM455 710l-33 45q25 8 37 22t12 34q0 17 -14 29.5t-37 12.5q-12 0 -23 -2t-29 -10l-12 51q20 11 38.5 14.5t34.5 3.5
q50 0 81 -26.5t31 -68.5q0 -34 -24 -62.5t-62 -42.5z" />
    <glyph glyph-name="uni1EC4" unicode="&#x1ec4;" horiz-adv-x="612" 
d="M88 0v745h480v-75h-400v-259h380v-75h-380v-261h400v-75h-480zM166 849l120 140h84l121 -140h-88l-75 81l-74 -81h-88zM379 1052q-21 0 -34 9.5t-23 22t-19 22t-23 9.5q-13 0 -21 -13.5t-8 -45.5h-60q0 40 11 67.5t30 41.5t44 14q22 0 35.5 -9.5t23 -22t19 -22t22.5 -9.5
q15 0 22.5 15.5t7.5 43.5h60q0 -55 -24.5 -89t-62.5 -34z" />
    <glyph glyph-name="uni1EC5" unicode="&#x1ec5;" horiz-adv-x="615" 
d="M321 -12q-75 0 -135.5 36.5t-95.5 100.5t-35 145t34 143.5t92.5 98.5t131.5 36q58 0 103.5 -21.5t77.5 -58t49 -82t17 -93.5q0 -10 -1 -22.5t-3 -25.5h-453v70h410l-36 -30q9 55 -12.5 98.5t-61.5 69t-90 25.5t-92.5 -26t-66.5 -72.5t-19 -110.5q-5 -64 20.5 -111.5
t70 -73.5t95.5 -26q59 0 99 28t65 70l64 -34q-16 -36 -49 -66.5t-78.5 -49t-100.5 -18.5zM146 640l120 140h84l121 -140h-88l-75 81l-74 -81h-88zM359 843q-21 0 -34 9.5t-23 22t-19 22t-23 9.5q-13 0 -21 -13.5t-8 -45.5h-60q0 40 11 67.5t30 41.5t44 14q22 0 35.5 -9.5
t23 -22t19 -22t22.5 -9.5q15 0 22.5 15.5t7.5 43.5h60q0 -55 -24.5 -89t-62.5 -34z" />
    <glyph glyph-name="uni1EC6" unicode="&#x1ec6;" horiz-adv-x="612" 
d="M88 0v745h480v-75h-400v-259h380v-75h-380v-261h400v-75h-480zM278 -190v100h100v-100h-100zM166 849l120 150h84l121 -150h-88l-75 91l-74 -91h-88z" />
    <glyph glyph-name="uni1EC7" unicode="&#x1ec7;" horiz-adv-x="615" 
d="M321 -12q-75 0 -135.5 36.5t-95.5 100.5t-35 145t34 143.5t92.5 98.5t131.5 36q58 0 103.5 -21.5t77.5 -58t49 -82t17 -93.5q0 -10 -1 -22.5t-3 -25.5h-453v70h410l-36 -30q9 55 -12.5 98.5t-61.5 69t-90 25.5t-92.5 -26t-66.5 -72.5t-19 -110.5q-5 -64 20.5 -111.5
t70 -73.5t95.5 -26q59 0 99 28t65 70l64 -34q-16 -36 -49 -66.5t-78.5 -49t-100.5 -18.5zM258 -190v100h100v-100h-100zM146 640l120 150h84l121 -150h-88l-75 91l-74 -91h-88z" />
    <glyph glyph-name="uni1EC8" unicode="&#x1ec8;" horiz-adv-x="256" 
d="M88 0v745h80v-745h-80zM134 809l-33 45q25 8 37 22t12 34q0 17 -14 29.5t-37 12.5q-12 0 -23 -2t-29 -10l-12 51q20 11 38.5 14.5t34.5 3.5q50 0 81 -26.5t31 -68.5q0 -34 -24 -62.5t-62 -42.5z" />
    <glyph glyph-name="uni1EC9" unicode="&#x1ec9;" horiz-adv-x="199" 
d="M62 0v536h75v-536h-75zM105 600l-33 45q25 8 37 22t12 34q0 17 -14 29.5t-37 12.5q-12 0 -23 -2t-29 -10l-12 51q20 11 38.5 14.5t34.5 3.5q50 0 81 -26.5t31 -68.5q0 -34 -24 -62.5t-62 -42.5z" />
    <glyph glyph-name="uni1ECA" unicode="&#x1eca;" horiz-adv-x="256" 
d="M88 0v745h80v-745h-80zM78 -190v100h100v-100h-100z" />
    <glyph glyph-name="uni1ECB" unicode="&#x1ecb;" horiz-adv-x="229" 
d="M77 0v536h75v-536h-75zM77 635v110h75v-110h-75zM65 -190v100h100v-100h-100z" />
    <glyph glyph-name="uni1ECC" unicode="&#x1ecc;" horiz-adv-x="878" 
d="M439 -12q-78 0 -145.5 28.5t-118.5 80t-80 122t-29 154.5t29 154.5t80 122t118.5 79.5t145.5 28t145.5 -28.5t118.5 -80t80 -121.5t29 -154t-29 -154.5t-80 -122t-118.5 -80t-145.5 -28.5zM439 63q65 0 118.5 24t92.5 67t60.5 99t21.5 120q0 63 -21.5 119t-60.5 99
t-92.5 67t-118.5 24t-118.5 -24t-92.5 -67t-60.5 -99t-21.5 -119q0 -64 21.5 -120t60.5 -99t93 -67t118 -24zM389 -190v100h100v-100h-100z" />
    <glyph glyph-name="uni1ECD" unicode="&#x1ecd;" horiz-adv-x="655" 
d="M328 -12q-76 0 -138 36.5t-98.5 100t-36.5 144.5q0 80 36 143t97.5 99.5t139.5 36.5t139.5 -36t97 -99t35.5 -144q0 -82 -37 -145.5t-98.5 -99.5t-136.5 -36zM328 63q54 0 97.5 27t69 74t25.5 105t-25.5 104t-69 73t-97.5 27t-97.5 -27t-69.5 -73t-26 -104t26 -105
t69.5 -74t97.5 -27zM278 -190v100h100v-100h-100z" />
    <glyph glyph-name="uni1ECE" unicode="&#x1ece;" horiz-adv-x="878" 
d="M439 -12q-78 0 -145.5 28.5t-118.5 80t-80 122t-29 154.5t29 154.5t80 122t118.5 79.5t145.5 28t145.5 -28.5t118.5 -80t80 -121.5t29 -154t-29 -154.5t-80 -122t-118.5 -80t-145.5 -28.5zM439 63q65 0 118.5 24t92.5 67t60.5 99t21.5 120q0 63 -21.5 119t-60.5 99
t-92.5 67t-118.5 24t-118.5 -24t-92.5 -67t-60.5 -99t-21.5 -119q0 -64 21.5 -120t60.5 -99t93 -67t118 -24zM445 809l-33 45q25 8 37 22t12 34q0 17 -14 29.5t-37 12.5q-12 0 -23 -2t-29 -10l-12 51q20 11 38.5 14.5t34.5 3.5q50 0 81 -26.5t31 -68.5q0 -34 -24 -62.5
t-62 -42.5z" />
    <glyph glyph-name="uni1ECF" unicode="&#x1ecf;" horiz-adv-x="655" 
d="M328 -12q-76 0 -138 36.5t-98.5 100t-36.5 144.5q0 80 36 143t97.5 99.5t139.5 36.5t139.5 -36t97 -99t35.5 -144q0 -82 -37 -145.5t-98.5 -99.5t-136.5 -36zM328 63q54 0 97.5 27t69 74t25.5 105t-25.5 104t-69 73t-97.5 27t-97.5 -27t-69.5 -73t-26 -104t26 -105
t69.5 -74t97.5 -27zM334 600l-33 45q25 8 37 22t12 34q0 17 -14 29.5t-37 12.5q-12 0 -23 -2t-29 -10l-12 51q20 11 38.5 14.5t34.5 3.5q50 0 81 -26.5t31 -68.5q0 -34 -24 -62.5t-62 -42.5z" />
    <glyph glyph-name="uni1ED0" unicode="&#x1ed0;" horiz-adv-x="878" 
d="M439 -12q-78 0 -145.5 28.5t-118.5 80t-80 122t-29 154.5t29 154.5t80 122t118.5 79.5t145.5 28t145.5 -28.5t118.5 -80t80 -121.5t29 -154t-29 -154.5t-80 -122t-118.5 -80t-145.5 -28.5zM439 63q65 0 118.5 24t92.5 67t60.5 99t21.5 120q0 63 -21.5 119t-60.5 99
t-92.5 67t-118.5 24t-118.5 -24t-92.5 -67t-60.5 -99t-21.5 -119q0 -64 21.5 -120t60.5 -99t93 -67t118 -24zM277 849l120 140h84l121 -140h-88l-75 81l-74 -81h-88zM561 919l67 130h103l-94 -130h-76z" />
    <glyph glyph-name="uni1ED1" unicode="&#x1ed1;" horiz-adv-x="655" 
d="M328 -12q-76 0 -138 36.5t-98.5 100t-36.5 144.5q0 80 36 143t97.5 99.5t139.5 36.5t139.5 -36t97 -99t35.5 -144q0 -82 -37 -145.5t-98.5 -99.5t-136.5 -36zM328 63q54 0 97.5 27t69 74t25.5 105t-25.5 104t-69 73t-97.5 27t-97.5 -27t-69.5 -73t-26 -104t26 -105
t69.5 -74t97.5 -27zM166 640l120 140h84l121 -140h-88l-75 81l-74 -81h-88zM450 710l67 130h103l-94 -130h-76z" />
    <glyph glyph-name="uni1ED2" unicode="&#x1ed2;" horiz-adv-x="878" 
d="M439 -12q-78 0 -145.5 28.5t-118.5 80t-80 122t-29 154.5t29 154.5t80 122t118.5 79.5t145.5 28t145.5 -28.5t118.5 -80t80 -121.5t29 -154t-29 -154.5t-80 -122t-118.5 -80t-145.5 -28.5zM439 63q65 0 118.5 24t92.5 67t60.5 99t21.5 120q0 63 -21.5 119t-60.5 99
t-92.5 67t-118.5 24t-118.5 -24t-92.5 -67t-60.5 -99t-21.5 -119q0 -64 21.5 -120t60.5 -99t93 -67t118 -24zM277 849l120 140h84l121 -140h-88l-75 81l-74 -81h-88zM623 919l-94 130h103l67 -130h-76z" />
    <glyph glyph-name="uni1ED3" unicode="&#x1ed3;" horiz-adv-x="655" 
d="M328 -12q-76 0 -138 36.5t-98.5 100t-36.5 144.5q0 80 36 143t97.5 99.5t139.5 36.5t139.5 -36t97 -99t35.5 -144q0 -82 -37 -145.5t-98.5 -99.5t-136.5 -36zM328 63q54 0 97.5 27t69 74t25.5 105t-25.5 104t-69 73t-97.5 27t-97.5 -27t-69.5 -73t-26 -104t26 -105
t69.5 -74t97.5 -27zM166 640l120 140h84l121 -140h-88l-75 81l-74 -81h-88zM512 710l-94 130h103l67 -130h-76z" />
    <glyph glyph-name="uni1ED4" unicode="&#x1ed4;" horiz-adv-x="878" 
d="M439 -12q-78 0 -145.5 28.5t-118.5 80t-80 122t-29 154.5t29 154.5t80 122t118.5 79.5t145.5 28t145.5 -28.5t118.5 -80t80 -121.5t29 -154t-29 -154.5t-80 -122t-118.5 -80t-145.5 -28.5zM439 63q65 0 118.5 24t92.5 67t60.5 99t21.5 120q0 63 -21.5 119t-60.5 99
t-92.5 67t-118.5 24t-118.5 -24t-92.5 -67t-60.5 -99t-21.5 -119q0 -64 21.5 -120t60.5 -99t93 -67t118 -24zM277 849l120 140h84l121 -140h-88l-75 81l-74 -81h-88zM586 919l-33 45q25 8 37 22t12 34q0 17 -14 29.5t-37 12.5q-12 0 -23 -2t-29 -10l-12 51q20 11 38.5 14.5
t34.5 3.5q50 0 81 -26.5t31 -68.5q0 -34 -24 -62.5t-62 -42.5z" />
    <glyph glyph-name="uni1ED5" unicode="&#x1ed5;" horiz-adv-x="655" 
d="M328 -12q-76 0 -138 36.5t-98.5 100t-36.5 144.5q0 80 36 143t97.5 99.5t139.5 36.5t139.5 -36t97 -99t35.5 -144q0 -82 -37 -145.5t-98.5 -99.5t-136.5 -36zM328 63q54 0 97.5 27t69 74t25.5 105t-25.5 104t-69 73t-97.5 27t-97.5 -27t-69.5 -73t-26 -104t26 -105
t69.5 -74t97.5 -27zM166 640l120 140h84l121 -140h-88l-75 81l-74 -81h-88zM475 710l-33 45q25 8 37 22t12 34q0 17 -14 29.5t-37 12.5q-12 0 -23 -2t-29 -10l-12 51q20 11 38.5 14.5t34.5 3.5q50 0 81 -26.5t31 -68.5q0 -34 -24 -62.5t-62 -42.5z" />
    <glyph glyph-name="uni1ED6" unicode="&#x1ed6;" horiz-adv-x="878" 
d="M439 -12q-78 0 -145.5 28.5t-118.5 80t-80 122t-29 154.5t29 154.5t80 122t118.5 79.5t145.5 28t145.5 -28.5t118.5 -80t80 -121.5t29 -154t-29 -154.5t-80 -122t-118.5 -80t-145.5 -28.5zM439 63q65 0 118.5 24t92.5 67t60.5 99t21.5 120q0 63 -21.5 119t-60.5 99
t-92.5 67t-118.5 24t-118.5 -24t-92.5 -67t-60.5 -99t-21.5 -119q0 -64 21.5 -120t60.5 -99t93 -67t118 -24zM277 849l120 140h84l121 -140h-88l-75 81l-74 -81h-88zM490 1052q-21 0 -34 9.5t-23 22t-19 22t-23 9.5q-13 0 -21 -13.5t-8 -45.5h-60q0 40 11 67.5t30 41.5
t44 14q22 0 35.5 -9.5t23 -22t19 -22t22.5 -9.5q15 0 22.5 15.5t7.5 43.5h60q0 -55 -24.5 -89t-62.5 -34z" />
    <glyph glyph-name="uni1ED7" unicode="&#x1ed7;" horiz-adv-x="655" 
d="M328 -12q-76 0 -138 36.5t-98.5 100t-36.5 144.5q0 80 36 143t97.5 99.5t139.5 36.5t139.5 -36t97 -99t35.5 -144q0 -82 -37 -145.5t-98.5 -99.5t-136.5 -36zM328 63q54 0 97.5 27t69 74t25.5 105t-25.5 104t-69 73t-97.5 27t-97.5 -27t-69.5 -73t-26 -104t26 -105
t69.5 -74t97.5 -27zM166 640l120 140h84l121 -140h-88l-75 81l-74 -81h-88zM379 843q-21 0 -34 9.5t-23 22t-19 22t-23 9.5q-13 0 -21 -13.5t-8 -45.5h-60q0 40 11 67.5t30 41.5t44 14q22 0 35.5 -9.5t23 -22t19 -22t22.5 -9.5q15 0 22.5 15.5t7.5 43.5h60q0 -55 -24.5 -89
t-62.5 -34z" />
    <glyph glyph-name="uni1ED8" unicode="&#x1ed8;" horiz-adv-x="878" 
d="M439 -12q-78 0 -145.5 28.5t-118.5 80t-80 122t-29 154.5t29 154.5t80 122t118.5 79.5t145.5 28t145.5 -28.5t118.5 -80t80 -121.5t29 -154t-29 -154.5t-80 -122t-118.5 -80t-145.5 -28.5zM439 63q65 0 118.5 24t92.5 67t60.5 99t21.5 120q0 63 -21.5 119t-60.5 99
t-92.5 67t-118.5 24t-118.5 -24t-92.5 -67t-60.5 -99t-21.5 -119q0 -64 21.5 -120t60.5 -99t93 -67t118 -24zM389 -190v100h100v-100h-100zM277 849l120 150h84l121 -150h-88l-75 91l-74 -91h-88z" />
    <glyph glyph-name="uni1ED9" unicode="&#x1ed9;" horiz-adv-x="655" 
d="M328 -12q-76 0 -138 36.5t-98.5 100t-36.5 144.5q0 80 36 143t97.5 99.5t139.5 36.5t139.5 -36t97 -99t35.5 -144q0 -82 -37 -145.5t-98.5 -99.5t-136.5 -36zM328 63q54 0 97.5 27t69 74t25.5 105t-25.5 104t-69 73t-97.5 27t-97.5 -27t-69.5 -73t-26 -104t26 -105
t69.5 -74t97.5 -27zM278 -190v100h100v-100h-100zM166 640l120 150h84l121 -150h-88l-75 91l-74 -91h-88z" />
    <glyph glyph-name="uni1EDA" unicode="&#x1eda;" horiz-adv-x="878" 
d="M439 -12q-78 0 -145.5 28.5t-118.5 80t-80 122t-29 154.5t29 154.5t80 122t118.5 79.5t145.5 28h213q12 0 23.5 3.5t19 15t7.5 33.5q0 21 -6.5 40.5t-16.5 39.5h92q11 -19 18 -40.5t7 -47.5q0 -61 -35.5 -84.5t-94.5 -23.5h-38l10 8q53 -33 92 -82.5t60.5 -111.5
t21.5 -134q0 -84 -29 -154.5t-80 -122t-118.5 -80t-145.5 -28.5zM439 63q65 0 118.5 24t92.5 67t60.5 99t21.5 120q0 63 -21.5 119t-60.5 99t-92.5 67t-118.5 24t-118.5 -24t-92.5 -67t-60.5 -99t-21.5 -119q0 -64 21.5 -120t60.5 -99t93 -67t118 -24zM401 849l87 150h103
l-114 -150h-76z" />
    <glyph glyph-name="uni1EDB" unicode="&#x1edb;" horiz-adv-x="655" 
d="M328 -12q-76 0 -138 36.5t-98.5 100t-36.5 144.5q0 80 36 143t97.5 99.5t139.5 36.5h113q13 0 24.5 4.5t19 16t7.5 32.5t-6.5 40.5t-15.5 39.5h74q9 -20 16 -41t7 -46q0 -46 -24 -72t-63 -32l3 11q54 -37 85.5 -97t31.5 -135q0 -82 -37 -145.5t-98.5 -99.5t-136.5 -36z
M328 63q54 0 97.5 27t69 74t25.5 105t-25.5 104t-69 73t-97.5 27t-97.5 -27t-69.5 -73t-26 -104t26 -105t69.5 -74t97.5 -27zM290 640l87 150h103l-114 -150h-76z" />
    <glyph glyph-name="uni1EDC" unicode="&#x1edc;" horiz-adv-x="878" 
d="M439 -12q-78 0 -145.5 28.5t-118.5 80t-80 122t-29 154.5t29 154.5t80 122t118.5 79.5t145.5 28h213q12 0 23.5 3.5t19 15t7.5 33.5q0 21 -6.5 40.5t-16.5 39.5h92q11 -19 18 -40.5t7 -47.5q0 -61 -35.5 -84.5t-94.5 -23.5h-38l10 8q53 -33 92 -82.5t60.5 -111.5
t21.5 -134q0 -84 -29 -154.5t-80 -122t-118.5 -80t-145.5 -28.5zM439 63q65 0 118.5 24t92.5 67t60.5 99t21.5 120q0 63 -21.5 119t-60.5 99t-92.5 67t-118.5 24t-118.5 -24t-92.5 -67t-60.5 -99t-21.5 -119q0 -64 21.5 -120t60.5 -99t93 -67t118 -24zM401 849l-114 150h103
l87 -150h-76z" />
    <glyph glyph-name="uni1EDD" unicode="&#x1edd;" horiz-adv-x="655" 
d="M328 -12q-76 0 -138 36.5t-98.5 100t-36.5 144.5q0 80 36 143t97.5 99.5t139.5 36.5h113q13 0 24.5 4.5t19 16t7.5 32.5t-6.5 40.5t-15.5 39.5h74q9 -20 16 -41t7 -46q0 -46 -24 -72t-63 -32l3 11q54 -37 85.5 -97t31.5 -135q0 -82 -37 -145.5t-98.5 -99.5t-136.5 -36z
M328 63q54 0 97.5 27t69 74t25.5 105t-25.5 104t-69 73t-97.5 27t-97.5 -27t-69.5 -73t-26 -104t26 -105t69.5 -74t97.5 -27zM290 640l-114 150h103l87 -150h-76z" />
    <glyph glyph-name="uni1EDE" unicode="&#x1ede;" horiz-adv-x="878" 
d="M439 -12q-78 0 -145.5 28.5t-118.5 80t-80 122t-29 154.5t29 154.5t80 122t118.5 79.5t145.5 28h213q12 0 23.5 3.5t19 15t7.5 33.5q0 21 -6.5 40.5t-16.5 39.5h92q11 -19 18 -40.5t7 -47.5q0 -61 -35.5 -84.5t-94.5 -23.5h-38l10 8q53 -33 92 -82.5t60.5 -111.5
t21.5 -134q0 -84 -29 -154.5t-80 -122t-118.5 -80t-145.5 -28.5zM439 63q65 0 118.5 24t92.5 67t60.5 99t21.5 120q0 63 -21.5 119t-60.5 99t-92.5 67t-118.5 24t-118.5 -24t-92.5 -67t-60.5 -99t-21.5 -119q0 -64 21.5 -120t60.5 -99t93 -67t118 -24zM445 809l-33 45
q25 8 37 22t12 34q0 17 -14 29.5t-37 12.5q-12 0 -23 -2t-29 -10l-12 51q20 11 38.5 14.5t34.5 3.5q50 0 81 -26.5t31 -68.5q0 -34 -24 -62.5t-62 -42.5z" />
    <glyph glyph-name="uni1EDF" unicode="&#x1edf;" horiz-adv-x="655" 
d="M328 -12q-76 0 -138 36.5t-98.5 100t-36.5 144.5q0 80 36 143t97.5 99.5t139.5 36.5h113q13 0 24.5 4.5t19 16t7.5 32.5t-6.5 40.5t-15.5 39.5h74q9 -20 16 -41t7 -46q0 -46 -24 -72t-63 -32l3 11q54 -37 85.5 -97t31.5 -135q0 -82 -37 -145.5t-98.5 -99.5t-136.5 -36z
M328 63q54 0 97.5 27t69 74t25.5 105t-25.5 104t-69 73t-97.5 27t-97.5 -27t-69.5 -73t-26 -104t26 -105t69.5 -74t97.5 -27zM334 600l-33 45q25 8 37 22t12 34q0 17 -14 29.5t-37 12.5q-12 0 -23 -2t-29 -10l-12 51q20 11 38.5 14.5t34.5 3.5q50 0 81 -26.5t31 -68.5
q0 -34 -24 -62.5t-62 -42.5z" />
    <glyph glyph-name="uni1EE0" unicode="&#x1ee0;" horiz-adv-x="878" 
d="M439 -12q-78 0 -145.5 28.5t-118.5 80t-80 122t-29 154.5t29 154.5t80 122t118.5 79.5t145.5 28h213q12 0 23.5 3.5t19 15t7.5 33.5q0 21 -6.5 40.5t-16.5 39.5h92q11 -19 18 -40.5t7 -47.5q0 -61 -35.5 -84.5t-94.5 -23.5h-38l10 8q53 -33 92 -82.5t60.5 -111.5
t21.5 -134q0 -84 -29 -154.5t-80 -122t-118.5 -80t-145.5 -28.5zM439 63q65 0 118.5 24t92.5 67t60.5 99t21.5 120q0 63 -21.5 119t-60.5 99t-92.5 67t-118.5 24t-118.5 -24t-92.5 -67t-60.5 -99t-21.5 -119q0 -64 21.5 -120t60.5 -99t93 -67t118 -24zM498 849
q-26 0 -42 9.5t-27 22t-22.5 22t-28.5 9.5q-16 0 -26 -13t-10 -46h-62q0 60 26.5 91.5t71.5 31.5q26 0 42 -9.5t27 -22t22.5 -22t28.5 -9.5q18 0 28.5 15.5t10.5 43.5h61q0 -55 -27 -89t-73 -34z" />
    <glyph glyph-name="uni1EE1" unicode="&#x1ee1;" horiz-adv-x="655" 
d="M328 -12q-76 0 -138 36.5t-98.5 100t-36.5 144.5q0 80 36 143t97.5 99.5t139.5 36.5h113q13 0 24.5 4.5t19 16t7.5 32.5t-6.5 40.5t-15.5 39.5h74q9 -20 16 -41t7 -46q0 -46 -24 -72t-63 -32l3 11q54 -37 85.5 -97t31.5 -135q0 -82 -37 -145.5t-98.5 -99.5t-136.5 -36z
M328 63q54 0 97.5 27t69 74t25.5 105t-25.5 104t-69 73t-97.5 27t-97.5 -27t-69.5 -73t-26 -104t26 -105t69.5 -74t97.5 -27zM387 640q-26 0 -42 9.5t-27 22t-22.5 22t-28.5 9.5q-16 0 -26 -13t-10 -46h-62q0 60 26.5 91.5t71.5 31.5q26 0 42 -9.5t27 -22t22.5 -22
t28.5 -9.5q18 0 28.5 15.5t10.5 43.5h61q0 -55 -27 -89t-73 -34z" />
    <glyph glyph-name="uni1EE2" unicode="&#x1ee2;" horiz-adv-x="878" 
d="M439 -12q-78 0 -145.5 28.5t-118.5 80t-80 122t-29 154.5t29 154.5t80 122t118.5 79.5t145.5 28h213q12 0 23.5 3.5t19 15t7.5 33.5q0 21 -6.5 40.5t-16.5 39.5h92q11 -19 18 -40.5t7 -47.5q0 -61 -35.5 -84.5t-94.5 -23.5h-38l10 8q53 -33 92 -82.5t60.5 -111.5
t21.5 -134q0 -84 -29 -154.5t-80 -122t-118.5 -80t-145.5 -28.5zM439 63q65 0 118.5 24t92.5 67t60.5 99t21.5 120q0 63 -21.5 119t-60.5 99t-92.5 67t-118.5 24t-118.5 -24t-92.5 -67t-60.5 -99t-21.5 -119q0 -64 21.5 -120t60.5 -99t93 -67t118 -24zM389 -190v100h100
v-100h-100z" />
    <glyph glyph-name="uni1EE3" unicode="&#x1ee3;" horiz-adv-x="655" 
d="M328 -12q-76 0 -138 36.5t-98.5 100t-36.5 144.5q0 80 36 143t97.5 99.5t139.5 36.5h113q13 0 24.5 4.5t19 16t7.5 32.5t-6.5 40.5t-15.5 39.5h74q9 -20 16 -41t7 -46q0 -46 -24 -72t-63 -32l3 11q54 -37 85.5 -97t31.5 -135q0 -82 -37 -145.5t-98.5 -99.5t-136.5 -36z
M328 63q54 0 97.5 27t69 74t25.5 105t-25.5 104t-69 73t-97.5 27t-97.5 -27t-69.5 -73t-26 -104t26 -105t69.5 -74t97.5 -27zM278 -190v100h100v-100h-100z" />
    <glyph glyph-name="uni1EE4" unicode="&#x1ee4;" horiz-adv-x="700" 
d="M350 -12q-79 0 -139 33t-93 90.5t-33 131.5v502h80v-502q0 -54 23.5 -94.5t65 -63t96.5 -22.5t96.5 22.5t65 63t23.5 94.5v502h80v-502q0 -74 -33 -131.5t-92.5 -90.5t-139.5 -33zM300 -190v100h100v-100h-100z" />
    <glyph glyph-name="uni1EE5" unicode="&#x1ee5;" 
d="M267 -12q-56 0 -102 26.5t-72.5 74t-26.5 109.5v338h75v-329q0 -43 17.5 -75.5t49 -50.5t72.5 -18t73 18.5t50 53t18 82.5v319h75v-536h-75v104l17 -4q-19 -52 -65 -82t-106 -30zM237 -190v100h100v-100h-100z" />
    <glyph glyph-name="uni1EE6" unicode="&#x1ee6;" horiz-adv-x="700" 
d="M350 -12q-79 0 -139 33t-93 90.5t-33 131.5v502h80v-502q0 -54 23.5 -94.5t65 -63t96.5 -22.5t96.5 22.5t65 63t23.5 94.5v502h80v-502q0 -74 -33 -131.5t-92.5 -90.5t-139.5 -33zM356 809l-33 45q25 8 37 22t12 34q0 17 -14 29.5t-37 12.5q-12 0 -23 -2t-29 -10l-12 51
q20 11 38.5 14.5t34.5 3.5q50 0 81 -26.5t31 -68.5q0 -34 -24 -62.5t-62 -42.5z" />
    <glyph glyph-name="uni1EE7" unicode="&#x1ee7;" 
d="M267 -12q-56 0 -102 26.5t-72.5 74t-26.5 109.5v338h75v-329q0 -43 17.5 -75.5t49 -50.5t72.5 -18t73 18.5t50 53t18 82.5v319h75v-536h-75v104l17 -4q-19 -52 -65 -82t-106 -30zM293 600l-33 45q25 8 37 22t12 34q0 17 -14 29.5t-37 12.5q-12 0 -23 -2t-29 -10l-12 51
q20 11 38.5 14.5t34.5 3.5q50 0 81 -26.5t31 -68.5q0 -34 -24 -62.5t-62 -42.5z" />
    <glyph glyph-name="uni1EE8" unicode="&#x1ee8;" horiz-adv-x="700" 
d="M350 -12q-79 0 -139 33t-93 90.5t-33 131.5v502h80v-502q0 -54 23.5 -94.5t65 -63t96.5 -22.5t96.5 22.5t65 63t23.5 94.5v502h73q17 0 33.5 9t16.5 43q0 21 -6.5 40.5t-16.5 39.5h92q11 -19 18 -40.5t7 -47.5q0 -61 -35.5 -89.5t-94.5 -28.5h-7v-428q0 -74 -33 -131.5
t-92.5 -90.5t-139.5 -33zM312 849l87 150h103l-114 -150h-76z" />
    <glyph glyph-name="uni1EE9" unicode="&#x1ee9;" horiz-adv-x="595" 
d="M267 -12q-56 0 -102 26.5t-72.5 74t-26.5 109.5v338h75v-329q0 -43 17.5 -75.5t49 -50.5t72.5 -18t73 18.5t50 53t18 82.5v319h38q20 0 35.5 10.5t15.5 42.5q0 21 -6.5 40.5t-15.5 39.5h74q9 -20 16 -41t7 -46q0 -52 -29 -78t-76 -29l16 24v-499h-75v66
q-24 -37 -64 -57.5t-90 -20.5zM249 640l87 150h103l-114 -150h-76z" />
    <glyph glyph-name="uni1EEA" unicode="&#x1eea;" horiz-adv-x="700" 
d="M350 -12q-79 0 -139 33t-93 90.5t-33 131.5v502h80v-502q0 -54 23.5 -94.5t65 -63t96.5 -22.5t96.5 22.5t65 63t23.5 94.5v502h73q17 0 33.5 9t16.5 43q0 21 -6.5 40.5t-16.5 39.5h92q11 -19 18 -40.5t7 -47.5q0 -61 -35.5 -89.5t-94.5 -28.5h-7v-428q0 -74 -33 -131.5
t-92.5 -90.5t-139.5 -33zM312 849l-114 150h103l87 -150h-76z" />
    <glyph glyph-name="uni1EEB" unicode="&#x1eeb;" horiz-adv-x="595" 
d="M267 -12q-56 0 -102 26.5t-72.5 74t-26.5 109.5v338h75v-329q0 -43 17.5 -75.5t49 -50.5t72.5 -18t73 18.5t50 53t18 82.5v319h38q20 0 35.5 10.5t15.5 42.5q0 21 -6.5 40.5t-15.5 39.5h74q9 -20 16 -41t7 -46q0 -52 -29 -78t-76 -29l16 24v-499h-75v66
q-24 -37 -64 -57.5t-90 -20.5zM249 640l-114 150h103l87 -150h-76z" />
    <glyph glyph-name="uni1EEC" unicode="&#x1eec;" horiz-adv-x="700" 
d="M350 -12q-79 0 -139 33t-93 90.5t-33 131.5v502h80v-502q0 -54 23.5 -94.5t65 -63t96.5 -22.5t96.5 22.5t65 63t23.5 94.5v502h73q17 0 33.5 9t16.5 43q0 21 -6.5 40.5t-16.5 39.5h92q11 -19 18 -40.5t7 -47.5q0 -61 -35.5 -89.5t-94.5 -28.5h-7v-428q0 -74 -33 -131.5
t-92.5 -90.5t-139.5 -33zM356 809l-33 45q25 8 37 22t12 34q0 17 -14 29.5t-37 12.5q-12 0 -23 -2t-29 -10l-12 51q20 11 38.5 14.5t34.5 3.5q50 0 81 -26.5t31 -68.5q0 -34 -24 -62.5t-62 -42.5z" />
    <glyph glyph-name="uni1EED" unicode="&#x1eed;" horiz-adv-x="595" 
d="M267 -12q-56 0 -102 26.5t-72.5 74t-26.5 109.5v338h75v-329q0 -43 17.5 -75.5t49 -50.5t72.5 -18t73 18.5t50 53t18 82.5v319h38q20 0 35.5 10.5t15.5 42.5q0 21 -6.5 40.5t-15.5 39.5h74q9 -20 16 -41t7 -46q0 -52 -29 -78t-76 -29l16 24v-499h-75v66
q-24 -37 -64 -57.5t-90 -20.5zM293 600l-33 45q25 8 37 22t12 34q0 17 -14 29.5t-37 12.5q-12 0 -23 -2t-29 -10l-12 51q20 11 38.5 14.5t34.5 3.5q50 0 81 -26.5t31 -68.5q0 -34 -24 -62.5t-62 -42.5z" />
    <glyph glyph-name="uni1EEE" unicode="&#x1eee;" horiz-adv-x="700" 
d="M350 -12q-79 0 -139 33t-93 90.5t-33 131.5v502h80v-502q0 -54 23.5 -94.5t65 -63t96.5 -22.5t96.5 22.5t65 63t23.5 94.5v502h73q17 0 33.5 9t16.5 43q0 21 -6.5 40.5t-16.5 39.5h92q11 -19 18 -40.5t7 -47.5q0 -61 -35.5 -89.5t-94.5 -28.5h-7v-428q0 -74 -33 -131.5
t-92.5 -90.5t-139.5 -33zM409 849q-26 0 -42 9.5t-27 22t-22.5 22t-28.5 9.5q-16 0 -26 -13t-10 -46h-62q0 60 26.5 91.5t71.5 31.5q26 0 42 -9.5t27 -22t22.5 -22t28.5 -9.5q18 0 28.5 15.5t10.5 43.5h61q0 -55 -27 -89t-73 -34z" />
    <glyph glyph-name="uni1EEF" unicode="&#x1eef;" horiz-adv-x="595" 
d="M267 -12q-56 0 -102 26.5t-72.5 74t-26.5 109.5v338h75v-329q0 -43 17.5 -75.5t49 -50.5t72.5 -18t73 18.5t50 53t18 82.5v319h38q20 0 35.5 10.5t15.5 42.5q0 21 -6.5 40.5t-15.5 39.5h74q9 -20 16 -41t7 -46q0 -52 -29 -78t-76 -29l16 24v-499h-75v66
q-24 -37 -64 -57.5t-90 -20.5zM346 640q-26 0 -42 9.5t-27 22t-22.5 22t-28.5 9.5q-16 0 -26 -13t-10 -46h-62q0 60 26.5 91.5t71.5 31.5q26 0 42 -9.5t27 -22t22.5 -22t28.5 -9.5q18 0 28.5 15.5t10.5 43.5h61q0 -55 -27 -89t-73 -34z" />
    <glyph glyph-name="uni1EF0" unicode="&#x1ef0;" horiz-adv-x="700" 
d="M350 -12q-79 0 -139 33t-93 90.5t-33 131.5v502h80v-502q0 -54 23.5 -94.5t65 -63t96.5 -22.5t96.5 22.5t65 63t23.5 94.5v502h73q17 0 33.5 9t16.5 43q0 21 -6.5 40.5t-16.5 39.5h92q11 -19 18 -40.5t7 -47.5q0 -61 -35.5 -89.5t-94.5 -28.5h-7v-428q0 -74 -33 -131.5
t-92.5 -90.5t-139.5 -33zM300 -190v100h100v-100h-100z" />
    <glyph glyph-name="uni1EF1" unicode="&#x1ef1;" horiz-adv-x="595" 
d="M267 -12q-56 0 -102 26.5t-72.5 74t-26.5 109.5v338h75v-329q0 -43 17.5 -75.5t49 -50.5t72.5 -18t73 18.5t50 53t18 82.5v319h38q20 0 35.5 10.5t15.5 42.5q0 21 -6.5 40.5t-15.5 39.5h74q9 -20 16 -41t7 -46q0 -52 -29 -78t-76 -29l16 24v-499h-75v66
q-24 -37 -64 -57.5t-90 -20.5zM237 -190v100h100v-100h-100z" />
    <glyph glyph-name="Ygrave" unicode="&#x1ef2;" horiz-adv-x="623" 
d="M272 0v346l-261 399h89l228 -347h-32l227 347h89l-260 -399v-346h-80zM274 849l-114 150h103l87 -150h-76z" />
    <glyph glyph-name="ygrave" unicode="&#x1ef3;" horiz-adv-x="536" 
d="M88 -220q-16 0 -32.5 2.5t-32.5 8.5v70q10 -1 25.5 -3.5t31.5 -2.5q49 0 75 20.5t51 78.5l34 80l-2 -66l-227 568h81l186 -469h-21l185 469h83l-245 -604q-16 -39 -40.5 -74t-61.5 -56.5t-90 -21.5zM230 640l-114 150h103l87 -150h-76z" />
    <glyph glyph-name="uni1EF4" unicode="&#x1ef4;" horiz-adv-x="623" 
d="M272 0v346l-261 399h89l228 -347h-32l227 347h89l-260 -399v-346h-80zM262 -190v100h100v-100h-100z" />
    <glyph glyph-name="uni1EF5" unicode="&#x1ef5;" horiz-adv-x="536" 
d="M88 -220q-16 0 -32.5 2.5t-32.5 8.5v70q10 -1 25.5 -3.5t31.5 -2.5q49 0 75 20.5t51 78.5l34 80l-2 -66l-227 568h81l186 -469h-21l185 469h83l-245 -604q-16 -39 -40.5 -74t-61.5 -56.5t-90 -21.5zM436 -90v100h100v-100h-100z" />
    <glyph glyph-name="uni1EF6" unicode="&#x1ef6;" horiz-adv-x="623" 
d="M272 0v346l-261 399h89l228 -347h-32l227 347h89l-260 -399v-346h-80zM318 809l-33 45q25 8 37 22t12 34q0 17 -14 29.5t-37 12.5q-12 0 -23 -2t-29 -10l-12 51q20 11 38.5 14.5t34.5 3.5q50 0 81 -26.5t31 -68.5q0 -34 -24 -62.5t-62 -42.5z" />
    <glyph glyph-name="uni1EF7" unicode="&#x1ef7;" horiz-adv-x="536" 
d="M88 -220q-16 0 -32.5 2.5t-32.5 8.5v70q10 -1 25.5 -3.5t31.5 -2.5q49 0 75 20.5t51 78.5l34 80l-2 -66l-227 568h81l186 -469h-21l185 469h83l-245 -604q-16 -39 -40.5 -74t-61.5 -56.5t-90 -21.5zM274 600l-33 45q25 8 37 22t12 34q0 17 -14 29.5t-37 12.5
q-12 0 -23 -2t-29 -10l-12 51q20 11 38.5 14.5t34.5 3.5q50 0 81 -26.5t31 -68.5q0 -34 -24 -62.5t-62 -42.5z" />
    <glyph glyph-name="uni1EF8" unicode="&#x1ef8;" horiz-adv-x="623" 
d="M272 0v346l-261 399h89l228 -347h-32l227 347h89l-260 -399v-346h-80zM371 849q-26 0 -42 9.5t-27 22t-22.5 22t-28.5 9.5q-16 0 -26 -13t-10 -46h-62q0 60 26.5 91.5t71.5 31.5q26 0 42 -9.5t27 -22t22.5 -22t28.5 -9.5q18 0 28.5 15.5t10.5 43.5h61q0 -55 -27 -89
t-73 -34z" />
    <glyph glyph-name="uni1EF9" unicode="&#x1ef9;" horiz-adv-x="536" 
d="M88 -220q-16 0 -32.5 2.5t-32.5 8.5v70q10 -1 25.5 -3.5t31.5 -2.5q49 0 75 20.5t51 78.5l34 80l-2 -66l-227 568h81l186 -469h-21l185 469h83l-245 -604q-16 -39 -40.5 -74t-61.5 -56.5t-90 -21.5zM327 640q-26 0 -42 9.5t-27 22t-22.5 22t-28.5 9.5q-16 0 -26 -13
t-10 -46h-62q0 60 26.5 91.5t71.5 31.5q26 0 42 -9.5t27 -22t22.5 -22t28.5 -9.5q18 0 28.5 15.5t10.5 43.5h61q0 -55 -27 -89t-73 -34z" />
    <glyph glyph-name="uni2002" unicode="&#x2002;" horiz-adv-x="500" 
 />
    <glyph glyph-name="uni2003" unicode="&#x2003;" horiz-adv-x="1000" 
 />
    <glyph glyph-name="uni2007" unicode="&#x2007;" horiz-adv-x="600" 
 />
    <glyph glyph-name="uni2008" unicode="&#x2008;" horiz-adv-x="286" 
 />
    <glyph glyph-name="uni2009" unicode="&#x2009;" horiz-adv-x="205" 
 />
    <glyph glyph-name="uni200A" unicode="&#x200a;" horiz-adv-x="42" 
 />
    <glyph glyph-name="uni200B" unicode="&#x200b;" horiz-adv-x="0" 
 />
    <glyph glyph-name="uni2010" unicode="&#x2010;" horiz-adv-x="498" 
d="M53 233v70h350v-70h-350z" />
    <glyph glyph-name="figuredash" unicode="&#x2012;" horiz-adv-x="568" 
d="M53 233v70h420v-70h-420z" />
    <glyph glyph-name="endash" unicode="&#x2013;" horiz-adv-x="568" 
d="M74 233v70h420v-70h-420z" />
    <glyph glyph-name="emdash" unicode="&#x2014;" horiz-adv-x="898" 
d="M74 233v70h750v-70h-750z" />
    <glyph glyph-name="uni2015" unicode="&#x2015;" horiz-adv-x="898" 
d="M53 233v70h750v-70h-750z" />
    <glyph glyph-name="quoteleft" unicode="&#x2018;" horiz-adv-x="270" 
d="M80 527v84q0 58 25.5 96t74.5 50v-35q-30 -8 -43 -29.5t-15 -55.5h38v-110h-80z" />
    <glyph glyph-name="quoteright" unicode="&#x2019;" horiz-adv-x="270" 
d="M80 515v35q30 8 43.5 29.5t14.5 55.5h-38v110h80v-84q0 -58 -25 -96t-75 -50z" />
    <glyph glyph-name="quotesinglbase" unicode="&#x201a;" horiz-adv-x="270" 
d="M80 -120v35q30 8 43.5 29.5t14.5 55.5h-38v110h80v-84q0 -58 -25 -96t-75 -50z" />
    <glyph glyph-name="quotedblleft" unicode="&#x201c;" horiz-adv-x="420" 
d="M230 527v84q0 58 25.5 96t74.5 50v-35q-30 -8 -43 -29.5t-15 -55.5h38v-110h-80zM80 527v84q0 58 25.5 96t74.5 50v-35q-30 -8 -43 -29.5t-15 -55.5h38v-110h-80z" />
    <glyph glyph-name="quotedblright" unicode="&#x201d;" horiz-adv-x="420" 
d="M230 515v35q30 8 43.5 29.5t14.5 55.5h-38v110h80v-84q0 -58 -25 -96t-75 -50zM80 515v35q30 8 43.5 29.5t14.5 55.5h-38v110h80v-84q0 -58 -25 -96t-75 -50z" />
    <glyph glyph-name="quotedblbase" unicode="&#x201e;" horiz-adv-x="420" 
d="M80 -120v35q30 8 43.5 29.5t14.5 55.5h-38v110h80v-84q0 -58 -25 -96t-75 -50zM230 -120v35q30 8 43.5 29.5t14.5 55.5h-38v110h80v-84q0 -58 -25 -96t-75 -50z" />
    <glyph glyph-name="dagger" unicode="&#x2020;" horiz-adv-x="624" 
d="M272 -190v653h-230v75h230v207h80v-207h230v-75h-230v-653h-80z" />
    <glyph glyph-name="daggerdbl" unicode="&#x2021;" horiz-adv-x="650" 
d="M285 -190v207h-230v75h230v371h-230v75h230v207h80v-207h230v-75h-230v-371h230v-75h-230v-207h-80z" />
    <glyph glyph-name="bullet" unicode="&#x2022;" horiz-adv-x="536" 
d="M271 103q-48 0 -86 22t-60 60t-22 86q0 46 21.5 82.5t59.5 58t87 21.5q46 0 82 -21.5t57.5 -58.5t22.5 -82q0 -48 -21.5 -86t-58 -60t-82.5 -22z" />
    <glyph glyph-name="ellipsis" unicode="&#x2026;" horiz-adv-x="686" 
d="M103 0v110h80v-110h-80zM303 0v110h80v-110h-80zM503 0v110h80v-110h-80z" />
    <glyph glyph-name="perthousand" unicode="&#x2030;" horiz-adv-x="1413" 
d="M138 0l610 745h97l-610 -745h-97zM247 367q-54 0 -98 26.5t-70.5 70.5t-26.5 98t26.5 98.5t70.5 70.5t98 26t98 -26t70 -70.5t26 -98.5t-26 -98t-70 -70.5t-98 -26.5zM247 439q35 0 61.5 17.5t42 46t15.5 59.5q0 32 -15.5 60t-42 45.5t-61.5 17.5q-34 0 -61.5 -17.5
t-43 -45.5t-15.5 -60q0 -31 15.5 -59.5t43 -46t61.5 -17.5zM727 -12q-54 0 -98 26.5t-70.5 70.5t-26.5 98t26.5 98.5t70.5 70.5t98 26t98 -26t70 -70.5t26 -98.5t-26 -98t-70 -70.5t-98 -26.5zM727 60q35 0 61.5 17.5t42 46t15.5 59.5q0 32 -15.5 60t-42 45.5t-61.5 17.5
q-34 0 -61.5 -17.5t-43 -45.5t-15.5 -60q0 -31 15.5 -59.5t43 -46t61.5 -17.5zM1166 -12q-54 0 -98.5 26.5t-70.5 70.5t-26 98t26 98.5t70.5 70.5t98.5 26t98 -26t70 -70.5t26 -98.5t-26 -98t-70 -70.5t-98 -26.5zM1166 60q35 0 61.5 17.5t42 46t15.5 59.5q0 32 -15.5 60
t-42 45.5t-61.5 17.5q-34 0 -61.5 -17.5t-43 -45.5t-15.5 -60q0 -31 15.5 -59.5t43 -46t61.5 -17.5z" />
    <glyph glyph-name="minute" unicode="&#x2032;" horiz-adv-x="295" 
d="M110 527v218h80l-12 -218h-68z" />
    <glyph glyph-name="second" unicode="&#x2033;" horiz-adv-x="445" 
d="M110 527v218h80l-12 -218h-68zM260 527v218h80l-12 -218h-68z" />
    <glyph glyph-name="guilsinglleft" unicode="&#x2039;" horiz-adv-x="300" 
d="M181 79l-152 190l152 190h90l-152 -190l152 -190h-90z" />
    <glyph glyph-name="guilsinglright" unicode="&#x203a;" horiz-adv-x="300" 
d="M29 79l152 190l-152 190h90l152 -190l-152 -190h-90z" />
    <glyph glyph-name="fraction" unicode="&#x2044;" horiz-adv-x="214" 
d="M-157 0l446 745h82l-446 -745h-82z" />
    <glyph glyph-name="uni2070" unicode="&#x2070;" horiz-adv-x="513" 
d="M257 215q-62 0 -109 34t-73 94.5t-26 140.5t26 140.5t72.5 94.5t108.5 34q63 0 109.5 -34t72.5 -94.5t26 -140.5t-26 -141t-72.5 -94.5t-108.5 -33.5zM257 285q40 0 69 25t45 69.5t16 104.5t-16 104.5t-45 69t-70 24.5q-39 0 -68.5 -24.5t-45.5 -68.5t-16 -105
q0 -60 16 -104.5t45.5 -69.5t69.5 -25z" />
    <glyph glyph-name="uni2074" unicode="&#x2074;" horiz-adv-x="469" 
d="M287 223v119h-252v63l249 340h75v-340h71v-63h-71v-119h-72zM92 378l-12 27h207v277l21 -6z" />
    <glyph glyph-name="uni2075" unicode="&#x2075;" horiz-adv-x="444" 
d="M217 215q-40 0 -76 14t-63 41t-39 66l64 25q14 -37 45.5 -57.5t68.5 -20.5q45 0 74 30t29 76q0 31 -13.5 54.5t-36.5 37.5t-53 14t-56 -14t-37 -36l-62 13l40 287h275v-66h-245l30 31l-31 -221l-25 17q22 29 53 42t68 13q51 0 89 -23t59.5 -61.5t21.5 -87.5t-23.5 -88.5
t-64 -62.5t-92.5 -23z" />
    <glyph glyph-name="uni2076" unicode="&#x2076;" horiz-adv-x="420" 
d="M210 215q-51 0 -90.5 22t-62 61t-22.5 89q0 40 14 79.5t50 86.5l146 192h92l-179 -233l-14 6q16 19 36 25.5t42 6.5q47 0 83.5 -21t58 -58.5t21.5 -85.5q0 -49 -23 -87.5t-62.5 -60.5t-89.5 -22zM210 283q42 0 70 29t28 72q0 44 -28 72.5t-70 28.5t-70 -28.5t-28 -72.5
q0 -43 28 -72t70 -29z" />
    <glyph glyph-name="uni2077" unicode="&#x2077;" horiz-adv-x="383" 
d="M55 223l226 456h-253v66h333v-66l-222 -456h-84z" />
    <glyph glyph-name="uni2078" unicode="&#x2078;" horiz-adv-x="454" 
d="M226 215q-53 0 -94 21t-63.5 57t-22.5 81q0 50 28 87t78 53l-3 -19q-37 14 -58 47t-21 72q0 40 20.5 71t55.5 49.5t80 18.5t80.5 -18t56 -49t20.5 -72q0 -40 -21.5 -72.5t-57.5 -46.5l-3 20q50 -17 78 -54.5t28 -87.5q0 -44 -23 -80t-63.5 -57t-94.5 -21zM226 280
q47 0 75.5 26t28.5 69q0 42 -28.5 68t-75.5 26q-46 0 -74.5 -26t-28.5 -68q0 -43 28.5 -69t74.5 -26zM226 535q35 0 57.5 21.5t22.5 54.5q0 34 -23 55t-57 21t-56.5 -21t-22.5 -55q0 -33 22.5 -54.5t56.5 -21.5z" />
    <glyph glyph-name="uni2079" unicode="&#x2079;" horiz-adv-x="420" 
d="M83 223l179 232l14 -6q-16 -18 -35 -25t-43 -7q-46 0 -83 21.5t-58.5 59t-21.5 84.5q0 49 22.5 87.5t62.5 61t90 22.5q51 0 90.5 -22.5t62 -61.5t22.5 -89q0 -40 -14 -79t-50 -86l-146 -192h-92zM210 482q42 0 70 29t28 72q0 44 -28 72.5t-70 28.5t-70 -28.5t-28 -72.5
q0 -43 28 -72t70 -29z" />
    <glyph glyph-name="uni207A" unicode="&#x207a;" horiz-adv-x="456" 
d="M195 308v142h-142v67h142v141h66v-141h142v-67h-142v-142h-66z" />
    <glyph glyph-name="uni207B" unicode="&#x207b;" horiz-adv-x="471" 
d="M78 450v67h315v-67h-315z" />
    <glyph glyph-name="uni207C" unicode="&#x207c;" horiz-adv-x="471" 
d="M78 529v66h315v-66h-315zM78 361v67h315v-67h-315z" />
    <glyph glyph-name="uni207D" unicode="&#x207d;" horiz-adv-x="246" 
d="M164 114q-58 66 -87 146t-29 169q0 91 29 170.5t87 145.5h62q-51 -75 -76 -154.5t-25 -161.5q0 -83 26 -163t75 -152h-62z" />
    <glyph glyph-name="uni207E" unicode="&#x207e;" horiz-adv-x="246" 
d="M20 114q50 73 75.5 153t25.5 162q0 85 -25.5 164t-75.5 152h62q58 -66 87 -145.5t29 -170.5q0 -89 -29 -169t-87 -146h-62z" />
    <glyph glyph-name="uni2080" unicode="&#x2080;" horiz-adv-x="513" 
d="M257 -8q-62 0 -109 34t-73 94.5t-26 140.5t26 140.5t72.5 94.5t108.5 34q63 0 109.5 -34t72.5 -94.5t26 -140.5t-26 -141t-72.5 -94.5t-108.5 -33.5zM257 62q40 0 69 25t45 69.5t16 104.5t-16 104.5t-45 69t-70 24.5q-39 0 -68.5 -24.5t-45.5 -68.5t-16 -105
q0 -60 16 -104.5t45.5 -69.5t69.5 -25z" />
    <glyph glyph-name="uni2081" unicode="&#x2081;" horiz-adv-x="302" 
d="M120 0v455h-99v67h176v-522h-77z" />
    <glyph glyph-name="uni2082" unicode="&#x2082;" horiz-adv-x="427" 
d="M40 0v55l143 154q42 45 67 73.5t36 50t11 45.5q0 40 -24 61.5t-62 21.5q-40 0 -68 -22.5t-39 -64.5l-68 19q9 43 34.5 73.5t62 47t78.5 16.5q49 0 85.5 -19t57 -51.5t20.5 -75.5q0 -49 -28 -90t-75 -91l-128 -137h242v-66h-345z" />
    </font>
</defs>
</svg>
