<?xml version="1.0" standalone="no"?>
<!DOCTYPE svg PUBLIC "-//W3C//DTD SVG 1.1//EN" "http://www.w3.org/Graphics/SVG/1.1/DTD/svg11.dtd" >
<svg xmlns="http://www.w3.org/2000/svg" xmlns:xlink="http://www.w3.org/1999/xlink" version="1.1">
<metadata>
Created by FontForge 20170731 at Fri Mar 11 18:23:42 2022
 By Aleksey,,,
Copyright 2020 The Plus Jakarta Sans Project Authors (https://github.com/tokotype/PlusJakartaSans)
</metadata>
<defs>
<font id="PlusJakartaSans-SemiBold" horiz-adv-x="586" >
  <font-face 
    font-family="Plus Jakarta Sans SemiBold"
    font-weight="600"
    font-stretch="normal"
    units-per-em="1000"
    panose-1="0 0 0 0 0 0 0 0 0 0"
    ascent="800"
    descent="-200"
    x-height="541"
    cap-height="745"
    bbox="-165 -251 1392 1242"
    underline-thickness="40"
    underline-position="-215"
    unicode-range="U+000D-FB02"
  />
<missing-glyph horiz-adv-x="640" 
d="M60 675v70h520v-70h-520zM60 0v70h520v-70h-520zM60 225v70h520v-70h-520zM60 450v70h520v-70h-520z" />
    <glyph glyph-name="fi" unicode="fi" horiz-adv-x="610" 
d="M127 0v439h-100v102h100v28q0 61 25 102.5t69.5 63.5t102.5 22q11 0 25 -1.5t23 -3.5v-98q-8 2 -18 2.5t-16 0.5q-45 0 -72 -20.5t-27 -67.5v-28h259v-102h-259v-439h-112zM445 0v541h112v-541h-112z" />
    <glyph glyph-name="fl" unicode="fl" horiz-adv-x="646" 
d="M127 0v439h-100v102h100v28q0 61 25 102.5t69.5 63.5t102.5 22q11 0 25 -1.5t23 -3.5v-98q-8 2 -18 2.5t-16 0.5q-45 0 -72 -20.5t-27 -67.5v-28h259v-102h-259v-439h-112zM468 0v757h112v-757h-112z" />
    <glyph glyph-name="f_f" unicode="ff" horiz-adv-x="793" 
d="M127 0v439h-100v102h100v28q0 61 25 102.5t69.5 63.5t102.5 22q11 0 25 -1.5t23 -3.5v-98q-8 2 -18 2.5t-16 0.5q-45 0 -72 -20.5t-27 -67.5v-28h259v-102h-259v-439h-112zM518 0v439h-99v102h99v28q0 61 25.5 102.5t70 63.5t101.5 22q12 0 26 -1.5t23 -3.5v-98
q-9 2 -18.5 2.5t-16.5 0.5q-45 0 -71.5 -20.5t-26.5 -67.5v-28h124v-102h-124v-439h-113z" />
    <glyph glyph-name="f_f_i" unicode="ffi" horiz-adv-x="1002" 
d="M127 0v439h-100v102h100v28q0 61 25 102.5t69.5 63.5t102.5 22q11 0 25 -1.5t23 -3.5v-98q-8 2 -18 2.5t-16 0.5q-45 0 -72 -20.5t-27 -67.5v-28h259v-102h-259v-439h-112zM836 0v541h113v-541h-113zM518 0v439h-99v102h99v28q0 61 25.5 102.5t70 63.5t101.5 22
q12 0 26 -1.5t23 -3.5v-98q-9 2 -18.5 2.5t-16.5 0.5q-45 0 -71.5 -20.5t-26.5 -67.5v-28h259v-102h-259v-439h-113z" />
    <glyph glyph-name="f_f_l" unicode="ffl" horiz-adv-x="1038" 
d="M127 0v439h-100v102h100v28q0 61 25 102.5t69.5 63.5t102.5 22q11 0 25 -1.5t23 -3.5v-98q-8 2 -18 2.5t-16 0.5q-45 0 -72 -20.5t-27 -67.5v-28h259v-102h-259v-439h-112zM859 0v757h113v-757h-113zM518 0v439h-99v102h99v28q0 61 25.5 102.5t70 63.5t101.5 22
q12 0 26 -1.5t23 -3.5v-98q-9 2 -18.5 2.5t-16.5 0.5q-45 0 -71.5 -20.5t-26.5 -67.5v-28h259v-102h-259v-439h-113z" />
    <glyph glyph-name=".notdef" horiz-adv-x="640" 
d="M60 675v70h520v-70h-520zM60 0v70h520v-70h-520zM60 225v70h520v-70h-520zM60 450v70h520v-70h-520z" />
    <glyph glyph-name=".null" horiz-adv-x="0" 
 />
    <glyph glyph-name="nonmarkingreturn" horiz-adv-x="333" 
 />
    <glyph glyph-name="CR" unicode="&#xd;" horiz-adv-x="175" 
 />
    <glyph glyph-name="space" unicode=" " horiz-adv-x="175" 
 />
    <glyph glyph-name="exclam" unicode="!" horiz-adv-x="341" 
d="M121 222l-8 523h115l-7 -523h-100zM113 0v130h115v-130h-115z" />
    <glyph glyph-name="quotedbl" unicode="&#x22;" horiz-adv-x="464" 
d="M107 484l-15 261h105l-15 -261h-75zM282 484l-16 261h105l-14 -261h-75z" />
    <glyph glyph-name="numbersign" unicode="#" horiz-adv-x="873" 
d="M125 0l50 174h-120v100h148l57 198h-120v100h149l50 173h115l-50 -173h180l49 173h115l-49 -173h120v-100h-149l-57 -198h120v-100h-149l-49 -174h-115l49 174h-179l-50 -174h-115zM318 274h180l57 198h-180z" />
    <glyph glyph-name="dollar" unicode="$" horiz-adv-x="647" 
d="M338 -12q-70 0 -130 26.5t-102 72.5t-62 106l100 42q27 -69 79 -106t120 -37q40 0 70 12.5t46.5 35.5t16.5 53q0 41 -23 65t-68 38l-140 44q-84 26 -128 79.5t-44 125.5q0 63 31 110.5t85.5 74.5t124.5 27q67 0 122 -23.5t94.5 -64.5t57.5 -95l-98 -43q-22 59 -68.5 91
t-107.5 32q-37 0 -65 -12.5t-43.5 -36t-15.5 -54.5q0 -36 23 -64t70 -42l130 -41q89 -27 134 -77.5t45 -125.5q0 -62 -32.5 -110t-89.5 -75.5t-132 -27.5zM292 -100v945h80v-945h-80z" />
    <glyph glyph-name="percent" unicode="%" horiz-adv-x="1022" 
d="M148 0l606 745h126l-606 -745h-126zM262 367q-55 0 -99 26.5t-70.5 70.5t-26.5 98t26.5 98.5t70.5 70.5t99 26t99 -26t70 -70.5t26 -98.5t-26 -98t-70 -70.5t-99 -26.5zM262 458q31 0 53.5 15t34.5 39t12 50q0 27 -12 50.5t-34.5 38.5t-53.5 15q-30 0 -53 -15
t-35.5 -38.5t-12.5 -50.5q0 -26 12.5 -50t35.5 -39t53 -15zM761 -12q-55 0 -99.5 26.5t-70.5 70.5t-26 98t26 98.5t70.5 70.5t99.5 26t99 -26t70 -70.5t26 -98.5t-26 -98t-70 -70.5t-99 -26.5zM761 79q31 0 53 15t34.5 39t12.5 50q0 27 -12.5 50.5t-34.5 38.5t-53 15
q-30 0 -53 -15t-35.5 -38.5t-12.5 -50.5q0 -26 12.5 -50t35.5 -39t53 -15z" />
    <glyph glyph-name="ampersand" unicode="&#x26;" horiz-adv-x="774" 
d="M293 -12q-66 0 -116 24.5t-78.5 69t-28.5 103.5q0 50 18 87.5t45 64t54 44.5t45 28l61 34q30 17 57 36t44 43t17 54q0 36 -24 60.5t-60 24.5t-60 -24t-24 -62q0 -26 12.5 -51t30 -46.5t34.5 -40.5l400 -437h-141l-343 369q-24 26 -47.5 55.5t-39 65.5t-15.5 80
q0 57 26.5 99t70 65t95.5 23q53 0 96 -23.5t68.5 -64.5t25.5 -93q0 -54 -25 -93t-60.5 -66t-66.5 -46l-61 -36q-24 -14 -50.5 -34.5t-44.5 -48t-18 -65.5q0 -47 29.5 -73t77.5 -26q31 0 55 10t42.5 26t33 35.5t26.5 36.5l116 170h121l-134 -208q-16 -24 -38 -53.5t-53 -56
t-73.5 -43.5t-99.5 -17z" />
    <glyph glyph-name="quotesingle" unicode="'" horiz-adv-x="289" 
d="M107 484l-15 261h105l-15 -261h-75z" />
    <glyph glyph-name="parenleft" unicode="(" horiz-adv-x="351" 
d="M225 -160q-82 96 -124 210t-42 243q0 130 42 244t124 208h95q-71 -105 -107.5 -218.5t-36.5 -233.5q0 -119 36.5 -233.5t107.5 -219.5h-95z" />
    <glyph glyph-name="parenright" unicode=")" horiz-adv-x="351" 
d="M31 -160q72 105 108 219.5t36 233.5q0 120 -36 233.5t-108 218.5h95q83 -94 125 -208t42 -244q0 -129 -42 -243t-125 -210h-95z" />
    <glyph glyph-name="asterisk" unicode="*" horiz-adv-x="520" 
d="M182 371l-73 53l77 104l-119 40l28 86l119 -40v131h91v-131l119 40l28 -86l-119 -40l78 -104l-73 -53l-78 104z" />
    <glyph glyph-name="plus" unicode="+" horiz-adv-x="642" 
d="M272 0v201h-201v100h201v199h100v-199h199v-100h-199v-201h-100z" />
    <glyph glyph-name="comma" unicode="," horiz-adv-x="328" 
d="M95 -147v55q33 8 51 30.5t22 61.5h-53v130h115v-85q0 -80 -34 -129t-101 -63z" />
    <glyph glyph-name="hyphen" unicode="-" horiz-adv-x="566" 
d="M83 221v100h400v-100h-400z" />
    <glyph glyph-name="period" unicode="." horiz-adv-x="347" 
d="M116 0v130h115v-130h-115z" />
    <glyph glyph-name="slash" unicode="/" horiz-adv-x="481" 
d="M11 -120l334 825h125l-334 -825h-125z" />
    <glyph glyph-name="zero" unicode="0" horiz-adv-x="716" 
d="M359 -12q-89 0 -156 48.5t-104.5 135t-37.5 201.5q0 116 37.5 202t104 134t155.5 48t155.5 -48t104 -134.5t37.5 -201.5t-37 -201.5t-103.5 -135t-155.5 -48.5zM359 96q55 0 95 34t62 96t22 147t-22 147t-62 96t-96 34q-55 0 -95 -34t-62 -96t-22 -147q0 -84 22 -146.5
t62.5 -96.5t95.5 -34z" />
    <glyph glyph-name="one" unicode="1" horiz-adv-x="392" 
d="M176 0v645h-143v100h260v-745h-117z" />
    <glyph glyph-name="two" unicode="2" horiz-adv-x="598" 
d="M50 0v85l204 218q60 64 94.5 103.5t50 69.5t15.5 63q0 54 -33 83.5t-85 29.5q-54 0 -93 -30.5t-54 -88.5l-104 30q12 59 48 102.5t88.5 67.5t113.5 24q71 0 124 -26.5t82.5 -73.5t29.5 -109q0 -41 -15.5 -79.5t-47.5 -81t-82 -95.5l-180 -192h339v-100h-495z" />
    <glyph glyph-name="three" unicode="3" horiz-adv-x="611" 
d="M293 -12q-60 0 -112.5 22t-90 62t-53.5 94l100 38q20 -53 61 -82t95 -29q44 0 76.5 17t51 48t18.5 75q0 43 -18.5 74t-51 47t-76.5 16q-18 0 -36.5 -3t-32.5 -8l-26 55l196 231h-317v100h449v-95l-192 -230l-3 38q67 -1 118 -29.5t79.5 -78t28.5 -114.5q0 -70 -34 -126.5
t-93.5 -89t-136.5 -32.5z" />
    <glyph glyph-name="four" unicode="4" horiz-adv-x="646" 
d="M394 0v168h-355v98l350 479h117v-479h103v-98h-103v-168h-112zM126 223l-19 43h287v385l32 -10z" />
    <glyph glyph-name="five" unicode="5" horiz-adv-x="615" 
d="M299 -12q-59 0 -111 21.5t-90 60.5t-54 94l99 38q19 -53 62 -81t94 -28q42 0 74 19t50.5 52t18.5 75q0 43 -18.5 75.5t-50.5 51t-74 18.5t-77 -19t-51 -51l-95 21l58 410h397v-100h-351l45 49l-43 -314l-37 25q30 42 73 61t98 19q73 0 127.5 -32.5t85 -88t30.5 -125.5
q0 -71 -34 -128t-92.5 -90t-133.5 -33z" />
    <glyph glyph-name="six" unicode="6" horiz-adv-x="601" 
d="M301 -12q-73 0 -130 32t-89.5 88t-32.5 127q0 37 8 74t28.5 77t55.5 86l208 273h141l-255 -330l-20 13q14 16 30.5 25t35 13t39.5 4q67 0 120 -31t83.5 -84t30.5 -122q0 -70 -33 -125.5t-89.5 -87.5t-130.5 -32zM301 93q39 0 69 18t48 49.5t18 71.5q0 41 -17.5 72
t-48 48.5t-69.5 17.5q-38 0 -68.5 -17.5t-48.5 -48.5t-18 -72q0 -40 18 -71.5t48.5 -49.5t68.5 -18z" />
    <glyph glyph-name="seven" unicode="7" horiz-adv-x="554" 
d="M75 0l318 645h-358v100h481v-100l-313 -645h-128z" />
    <glyph glyph-name="eight" unicode="8" horiz-adv-x="631" 
d="M315 -12q-78 0 -136.5 30.5t-90.5 82t-32 114.5q0 72 39.5 124.5t111.5 76.5l-5 -30q-53 20 -83.5 67.5t-30.5 104.5t29.5 102t81 71t116.5 26q66 0 117 -25.5t80.5 -70.5t29.5 -103q0 -59 -30.5 -105.5t-82.5 -66.5l-5 30q72 -25 112 -77t40 -124q0 -63 -32.5 -114.5
t-91.5 -82t-137 -30.5zM315 88q43 0 75 16.5t50 45.5t18 68t-18 68t-50 45t-75 16q-42 0 -74 -16t-50 -45t-18 -68t18 -68t50 -45.5t74 -16.5zM315 447q32 0 56.5 13.5t38.5 37.5t14 54q0 31 -14 54.5t-38.5 37t-56.5 13.5q-31 0 -56 -13.5t-39 -37t-14 -54.5q0 -30 14 -54
t39 -37.5t56 -13.5z" />
    <glyph glyph-name="nine" unicode="9" horiz-adv-x="601" 
d="M111 0l255 330l20 -13q-14 -15 -30.5 -24t-35 -13t-39.5 -4q-67 0 -120 30.5t-83.5 84t-30.5 121.5q0 71 33 126t90 87t130 32q74 0 130.5 -32t89 -87.5t32.5 -126.5q0 -38 -8 -75t-28 -76.5t-56 -86.5l-208 -273h-141zM300 375q39 0 69 18t48 49t18 71q0 41 -18 72.5
t-48.5 49t-68.5 17.5t-68.5 -17.5t-48.5 -49t-18 -72.5q0 -40 17.5 -71t48.5 -49t69 -18z" />
    <glyph glyph-name="colon" unicode=":" horiz-adv-x="347" 
d="M116 0v130h115v-130h-115zM116 411v130h115v-130h-115z" />
    <glyph glyph-name="semicolon" unicode=";" horiz-adv-x="367" 
d="M116 -147v52q33 8 52 32t23 63h-55v130h115v-85q0 -80 -34 -129t-101 -63zM136 411v130h115v-130h-115z" />
    <glyph glyph-name="less" unicode="&#x3c;" horiz-adv-x="642" 
d="M549 22l-442 195v108l442 195v-116l-353 -154v41l353 -153v-116z" />
    <glyph glyph-name="equal" unicode="=" horiz-adv-x="642" 
d="M96 311v100h450v-100h-450zM96 71v100h450v-100h-450z" />
    <glyph glyph-name="greater" unicode="&#x3e;" horiz-adv-x="642" 
d="M93 22v116l353 153v-41l-353 154v116l443 -195v-108z" />
    <glyph glyph-name="question" unicode="?" horiz-adv-x="555" 
d="M196 222v17q0 44 14.5 78t37 61.5t46.5 50.5q34 32 60.5 62t26.5 70q0 25 -12 45.5t-35.5 33t-57.5 12.5q-47 0 -80.5 -28.5t-42.5 -76.5l-105 25q9 55 40.5 96.5t80 65t109.5 23.5q69 0 118.5 -27.5t75.5 -71.5t26 -95q0 -41 -16.5 -73.5t-42 -59.5t-52.5 -53
q-32 -31 -56.5 -64.5t-24.5 -78.5v-12h-110zM196 0v130h115v-130h-115z" />
    <glyph glyph-name="at" unicode="@" horiz-adv-x="928" 
d="M484 -214q-92 0 -170 31t-136.5 88t-90.5 134.5t-32 169.5t32.5 169.5t90.5 134t136 87.5t169 31q92 0 169 -32t132.5 -89.5t85.5 -133.5t30 -165q0 -64 -21.5 -111.5t-60 -73.5t-91.5 -26q-33 0 -64.5 13t-53 39t-25.5 66l21 -38q-11 -25 -34.5 -43t-53.5 -27.5
t-63 -9.5q-58 0 -105.5 28t-75 76t-27.5 109t27.5 110t75 78.5t107.5 29.5q49 0 88.5 -19t56.5 -51l-9 -27v87h83v-261q0 -36 14.5 -54t40.5 -18q35 0 54 30t19 95q0 70 -22 130t-63.5 104.5t-100.5 69t-133 24.5q-73 0 -134 -24.5t-105 -69t-68 -105t-24 -132.5t24 -133
t68.5 -106t105.5 -70t133 -25q47 0 89.5 11t78.5 32l41 -78q-91 -55 -209 -55zM462 88q36 0 63 17t43 46t16 65q0 54 -34.5 90t-86.5 36q-35 1 -63 -15.5t-44 -45t-16 -65.5q0 -36 16 -65.5t44 -46t62 -16.5z" />
    <glyph glyph-name="A" unicode="A" horiz-adv-x="692" 
d="M11 0l262 745h146l262 -745h-126l-57 167h-303l-58 -167h-126zM229 272h233l-132 390h33z" />
    <glyph glyph-name="B" unicode="B" horiz-adv-x="692" 
d="M77 0v745h314q70 0 121 -24.5t78 -70t27 -107.5q0 -54 -27.5 -98.5t-85.5 -70.5v50q51 -20 83 -50.5t46.5 -68.5t14.5 -80q0 -105 -68.5 -165t-187.5 -60h-315zM195 105h206q59 0 94 32.5t35 86.5q0 55 -35 87.5t-94 32.5h-206v-239zM195 448h199q48 0 77 27.5t29 72.5
t-29 70t-77 25h-199v-195z" />
    <glyph glyph-name="C" unicode="C" horiz-adv-x="777" 
d="M424 -12q-79 0 -146.5 29t-117 80.5t-77.5 121.5t-28 154q0 83 27.5 153.5t77.5 122t117 80t147 28.5q79 0 141.5 -27t105.5 -70.5t62 -94.5l-106 -50q-24 60 -76.5 97.5t-126.5 37.5t-131 -35t-88.5 -97t-31.5 -145t31.5 -145.5t88.5 -97t131 -34.5t126.5 37t76.5 97
l106 -50q-19 -50 -62 -94t-105.5 -71t-141.5 -27z" />
    <glyph glyph-name="D" unicode="D" horiz-adv-x="741" 
d="M77 0v745h244q116 0 201.5 -46.5t132.5 -130.5t47 -195q0 -110 -47 -194.5t-132.5 -131.5t-201.5 -47h-244zM195 105h128q79 0 137.5 33t90.5 93t32 142t-32.5 141.5t-90.5 92.5t-137 33h-128v-535z" />
    <glyph glyph-name="E" unicode="E" horiz-adv-x="601" 
d="M77 0v745h491v-105h-373v-214h353v-105h-353v-216h373v-105h-491z" />
    <glyph glyph-name="F" unicode="F" horiz-adv-x="584" 
d="M77 0v745h485v-105h-367v-224h327v-105h-327v-311h-118z" />
    <glyph glyph-name="G" unicode="G" horiz-adv-x="813" 
d="M426 -12q-79 0 -146.5 29t-118 80.5t-78.5 121.5t-28 154q0 83 27.5 153.5t77.5 122t117 80t147 28.5q79 0 141.5 -27t105.5 -70.5t62 -94.5l-105 -51q-23 61 -76 98.5t-128 37.5q-74 0 -131 -35t-88.5 -97t-31.5 -145t32.5 -145.5t89.5 -97t131 -34.5q62 0 113.5 25.5
t82.5 72t31 108.5v51l53 -48h-282v100h346v-70q0 -82 -28 -146.5t-76 -109.5t-110 -68t-130 -23z" />
    <glyph glyph-name="H" unicode="H" horiz-adv-x="734" 
d="M77 0v745h118v-328h345v328h117v-745h-117v312h-345v-312h-118z" />
    <glyph glyph-name="I" unicode="I" horiz-adv-x="272" 
d="M77 0v745h118v-745h-118z" />
    <glyph glyph-name="J" unicode="J" horiz-adv-x="390" 
d="M44 0v110h43q50 0 80 29.5t30 79.5v526h117v-522q0 -68 -27.5 -118t-79 -77.5t-120.5 -27.5h-43z" />
    <glyph glyph-name="K" unicode="K" horiz-adv-x="671" 
d="M77 0v745h118v-404l-31 12l337 392h147l-298 -349l6 84l304 -480h-139l-218 341l-108 -126v-215h-118z" />
    <glyph glyph-name="L" unicode="L" horiz-adv-x="539" 
d="M77 0v745h118v-640h322v-105h-440z" />
    <glyph glyph-name="M" unicode="M" horiz-adv-x="874" 
d="M77 0v745h110l280 -388h-55l275 388h110v-745h-117v606l44 -12l-281 -384h-12l-275 384l39 12v-606h-118z" />
    <glyph glyph-name="N" unicode="N" horiz-adv-x="739" 
d="M77 0v745h95l418 -577l-45 -7v584h117v-745h-95l-415 581l43 8v-589h-118z" />
    <glyph glyph-name="O" unicode="O" horiz-adv-x="878" 
d="M439 -12q-81 0 -150.5 29t-122 81t-82 122t-29.5 153t29.5 153.5t81.5 122t122 80t151 28.5q82 0 151.5 -28.5t122 -80.5t81.5 -122t29 -153t-29.5 -153t-81.5 -122t-122 -81t-151 -29zM439 96q58 0 106.5 21t84.5 58.5t56 88t20 109.5t-20 109t-56 88t-84.5 59
t-106.5 21t-106.5 -21t-84.5 -59t-55.5 -88t-19.5 -109t19.5 -109.5t55.5 -88t85 -58.5t106 -21z" />
    <glyph glyph-name="P" unicode="P" horiz-adv-x="646" 
d="M77 0v745h271q75 0 132.5 -27.5t89.5 -80t32 -125.5q0 -72 -32.5 -124t-89.5 -80t-132 -28h-153v-280h-118zM195 385h156q40 0 70 16t47 44.5t17 67.5t-17 67.5t-47 44t-70 15.5h-156v-255z" />
    <glyph glyph-name="Q" unicode="Q" horiz-adv-x="878" 
d="M439 -12q-81 0 -150.5 29t-122 81t-82 122t-29.5 153t29.5 153.5t81.5 122t122 80t151 28.5q82 0 151.5 -28.5t122 -80.5t81.5 -122t29 -153t-29.5 -153t-81.5 -122t-122 -81t-151 -29zM439 96q58 0 106.5 21t84.5 58.5t56 88t20 109.5t-20 109t-56 88t-84.5 59
t-106.5 21t-106.5 -21t-84.5 -59t-55.5 -88t-19.5 -109t19.5 -109.5t55.5 -88t85 -58.5t106 -21zM626 -90l-244 388h126l245 -388h-127z" />
    <glyph glyph-name="R" unicode="R" horiz-adv-x="654" 
d="M77 0v745h271q75 0 132 -27.5t89.5 -80t32.5 -125.5q0 -77 -38.5 -132t-103.5 -80l172 -300h-134l-183 325l77 -45h-197v-280h-118zM195 385h155q41 0 71 16t46.5 44.5t16.5 67.5t-16.5 67.5t-46.5 44t-71 15.5h-155v-255z" />
    <glyph glyph-name="S" unicode="S" horiz-adv-x="647" 
d="M338 -12q-70 0 -130 26.5t-102 72.5t-62 106l100 42q27 -69 79 -106t120 -37q40 0 70 12.5t46.5 35.5t16.5 53q0 41 -23 65t-68 38l-140 44q-84 26 -128 79.5t-44 125.5q0 63 31 110.5t85.5 74.5t124.5 27q67 0 122 -23.5t94.5 -64.5t57.5 -95l-98 -43q-22 59 -68.5 91
t-107.5 32q-37 0 -65 -12.5t-43.5 -36t-15.5 -54.5q0 -36 23 -64t70 -42l130 -41q89 -27 134 -77.5t45 -125.5q0 -62 -32.5 -110t-89.5 -75.5t-132 -27.5z" />
    <glyph glyph-name="T" unicode="T" horiz-adv-x="532" 
d="M209 0v640h-198v105h510v-105h-195v-640h-117z" />
    <glyph glyph-name="U" unicode="U" horiz-adv-x="712" 
d="M356 -12q-83 0 -147.5 35t-101 96t-36.5 139v487h118v-482q0 -49 21.5 -87t59 -59t86.5 -21q50 0 87.5 21t59 59t21.5 87v482h117v-487q0 -78 -36 -139t-100.5 -96t-148.5 -35z" />
    <glyph glyph-name="V" unicode="V" horiz-adv-x="682" 
d="M275 0l-264 745h127l216 -636h-25l215 636h127l-264 -745h-132z" />
    <glyph glyph-name="W" unicode="W" horiz-adv-x="1008" 
d="M216 0l-205 745h125l166 -645h-31l172 645h123l172 -645h-32l167 645h124l-204 -745h-133l-173 635h35l-174 -635h-132z" />
    <glyph glyph-name="X" unicode="X" horiz-adv-x="640" 
d="M11 0l243 377l-239 368h134l200 -308h-57l198 308h134l-238 -368l243 -377h-134l-203 316l57 -1l-205 -315h-133z" />
    <glyph glyph-name="Y" unicode="Y" horiz-adv-x="648" 
d="M266 0v336l-255 409h133l204 -331h-47l203 331h133l-254 -409v-336h-117z" />
    <glyph glyph-name="Z" unicode="Z" horiz-adv-x="576" 
d="M17 0v90l382 550h-360v105h511v-89l-382 -551h391v-105h-542z" />
    <glyph glyph-name="bracketleft" unicode="[" horiz-adv-x="382" 
d="M99 -160v905h240v-100h-125v-705h125v-100h-240z" />
    <glyph glyph-name="backslash" unicode="\" horiz-adv-x="481" 
d="M345 -120l-334 825h125l334 -825h-125z" />
    <glyph glyph-name="bracketright" unicode="]" horiz-adv-x="382" 
d="M43 -160v100h125v705h-125v100h240v-905h-240z" />
    <glyph glyph-name="asciicircum" unicode="^" horiz-adv-x="642" 
d="M98 422l170 323h107l170 -323h-125l-121 234h47l-122 -234h-126z" />
    <glyph glyph-name="underscore" unicode="_" horiz-adv-x="641" 
d="M83 -100v100h475v-100h-475z" />
    <glyph glyph-name="grave" unicode="`" horiz-adv-x="372" 
d="M225 640l-109 165h148l73 -165h-112z" />
    <glyph glyph-name="a" unicode="a" horiz-adv-x="578" 
d="M228 -12q-55 0 -96.5 19.5t-64.5 54t-23 81.5q0 44 19.5 79t60.5 59t103 34l188 31v-89l-166 -29q-45 -8 -66 -28.5t-21 -52.5q0 -31 23.5 -50.5t60.5 -19.5q46 0 80.5 20t53.5 53.5t19 74.5v139q0 40 -29.5 65.5t-78.5 25.5q-45 0 -78.5 -23.5t-49.5 -60.5l-94 47
q15 40 49 70.5t79.5 47.5t96.5 17q64 0 113.5 -24t77 -66.5t27.5 -98.5v-364h-108v98l23 -3q-19 -33 -48.5 -57t-67 -37t-83.5 -13z" />
    <glyph glyph-name="b" unicode="b" horiz-adv-x="670" 
d="M355 -12q-63 0 -114.5 26t-79.5 75l13 21v-110h-108v757h113v-328l-18 26q30 46 80 72t114 26q77 0 138.5 -37t97 -101t35.5 -144t-35.5 -144t-96.5 -101.5t-139 -37.5zM344 93q48 0 85 23t58.5 63.5t21.5 91.5t-21.5 91t-58.5 63t-85 23q-47 0 -84.5 -23t-59 -63
t-21.5 -91t21.5 -91.5t59 -63.5t84.5 -23z" />
    <glyph glyph-name="c" unicode="c" horiz-adv-x="606" 
d="M323 -12q-81 0 -143.5 37.5t-99 101.5t-36.5 145q0 80 36 144t99 100.5t144 36.5q55 0 103 -19.5t83.5 -53.5t52.5 -79l-99 -46q-17 42 -54.5 67.5t-85.5 25.5q-46 0 -82.5 -22.5t-57.5 -63t-21 -91.5t21 -91.5t57.5 -63.5t82.5 -23q49 0 85.5 25.5t54.5 68.5l99 -47
q-16 -43 -51.5 -77.5t-83.5 -54.5t-104 -20z" />
    <glyph glyph-name="d" unicode="d" horiz-adv-x="670" 
d="M316 -12q-78 0 -139.5 37.5t-97 101.5t-35.5 144t36 144t97 101t138 37q65 0 115 -26t79 -72l-17 -26v328h112v-757h-107v110l13 -21q-28 -49 -80 -75t-114 -26zM327 93q47 0 84.5 23t59 63.5t21.5 91.5t-21.5 91t-59 63t-84.5 23t-85 -23t-59 -63t-21 -91t21 -91.5
t58.5 -63.5t85.5 -23z" />
    <glyph glyph-name="e" unicode="e" horiz-adv-x="613" 
d="M320 -12q-81 0 -143.5 37.5t-97.5 102t-35 144.5q0 82 35.5 145t95.5 99.5t136 36.5q61 0 109 -21t81 -57.5t50.5 -83.5t17.5 -100q0 -13 -1 -27t-4 -26h-431v90h367l-54 -41q10 49 -6.5 87.5t-50 61t-78.5 22.5t-80 -22.5t-54 -64t-15 -100.5q-5 -55 15.5 -96t58 -64
t85.5 -23q49 0 83.5 22t54.5 57l92 -45q-16 -38 -49.5 -68.5t-80 -48t-101.5 -17.5z" />
    <glyph glyph-name="f" unicode="f" horiz-adv-x="402" 
d="M127 0v439h-100v102h100v28q0 61 25 102.5t69.5 63.5t102.5 22q11 0 25 -1.5t23 -3.5v-98q-8 2 -18 2.5t-16 0.5q-45 0 -72 -20.5t-27 -67.5v-28h124v-102h-124v-439h-112z" />
    <glyph glyph-name="g" unicode="g" horiz-adv-x="655" 
d="M327 -220q-59 0 -109 19t-86 52.5t-54 78.5l104 43q14 -38 51.5 -63t92.5 -25q43 0 77 16.5t54 48t20 75.5v122l20 -23q-28 -52 -77.5 -79t-111.5 -27q-75 0 -135 35t-94.5 96t-34.5 137q0 77 34.5 137t93.5 95t135 35q62 0 110.5 -26.5t79.5 -76.5l-15 -28v119h107v-516
q0 -70 -33.5 -125.5t-92.5 -87.5t-136 -32zM321 123q45 0 80 21.5t55.5 58t20.5 82.5t-21 83t-56 58.5t-79 21.5q-46 0 -82 -21.5t-56.5 -58t-20.5 -83.5q0 -45 20.5 -82t56.5 -58.5t82 -21.5z" />
    <glyph glyph-name="h" unicode="h" 
d="M66 0v757h113v-322l-18 14q20 51 64 77.5t102 26.5q60 0 106 -26t72 -72t26 -105v-350h-112v319q0 41 -15.5 69.5t-42.5 44t-62 15.5q-34 0 -61.5 -15.5t-43 -44.5t-15.5 -69v-319h-113z" />
    <glyph glyph-name="i" unicode="i" horiz-adv-x="245" 
d="M66 0v541h113v-541h-113zM66 615v130h113v-130h-113z" />
    <glyph glyph-name="j" unicode="j" horiz-adv-x="245" 
d="M-17 -221q-11 0 -24.5 1.5t-22.5 3.5v98q19 -3 38 -3q42 0 67 21.5t25 64.5v576h113v-576q0 -59 -25 -101t-69 -63.5t-102 -21.5zM66 615v130h113v-130h-113z" />
    <glyph glyph-name="k" unicode="k" horiz-adv-x="567" 
d="M66 0v757h113v-507l-44 11l271 280h141l-204 -217l213 -324h-130l-190 287l67 9l-160 -170l36 75v-201h-113z" />
    <glyph glyph-name="l" unicode="l" horiz-adv-x="245" 
d="M66 0v757h113v-757h-113z" />
    <glyph glyph-name="m" unicode="m" horiz-adv-x="919" 
d="M66 0v541h108v-117l-14 18q17 55 62 83t103 28q65 0 115.5 -34.5t67.5 -91.5l-32 -3q24 65 73.5 97t113.5 32q56 0 101.5 -26t72.5 -72t27 -105v-350h-113v319q0 41 -14.5 69.5t-40 44t-59.5 15.5t-60 -15.5t-41 -44.5t-15 -69v-319h-112v319q0 41 -14.5 69.5t-40 44
t-60.5 15.5q-34 0 -60 -15.5t-40.5 -44.5t-14.5 -69v-319h-113z" />
    <glyph glyph-name="n" unicode="n" 
d="M66 0v541h108v-106l-13 14q20 51 64 77.5t102 26.5q60 0 106 -26t72 -72t26 -106v-349h-112v319q0 41 -15 69.5t-42.5 44t-62.5 15.5t-62.5 -15.5t-42.5 -44.5t-15 -69v-319h-113z" />
    <glyph glyph-name="o" unicode="o" horiz-adv-x="653" 
d="M327 -12q-78 0 -142.5 37t-102.5 101t-38 145q0 82 38 145.5t102 100t143 36.5q80 0 143.5 -36.5t101 -100t37.5 -145.5t-38 -146t-102 -100.5t-142 -36.5zM327 93q48 0 85 23t58.5 63.5t21.5 91.5t-21.5 91t-58.5 63t-85 23q-47 0 -84.5 -23t-59 -63t-21.5 -91
t21.5 -91.5t59 -63.5t84.5 -23z" />
    <glyph glyph-name="p" unicode="p" horiz-adv-x="670" 
d="M66 -200v741h108v-112l-13 26q30 46 80 72t114 26q77 0 138.5 -37t97 -101t35.5 -144t-35.5 -144t-96.5 -101.5t-139 -37.5q-63 0 -114.5 26t-79.5 75l18 21v-310h-113zM344 93q48 0 85 23t58.5 63.5t21.5 91.5t-21.5 91t-58.5 63t-85 23q-47 0 -84.5 -23t-59 -63
t-21.5 -91t21.5 -91.5t59 -63.5t84.5 -23z" />
    <glyph glyph-name="q" unicode="q" horiz-adv-x="670" 
d="M492 -200v310l18 -21q-28 -49 -80 -75t-114 -26q-78 0 -139.5 37.5t-97 101.5t-35.5 144t36 144t97 101t138 37q65 0 115 -26t79 -72l-12 -26v112h107v-741h-112zM327 93q47 0 84.5 23t59 63.5t21.5 91.5t-21.5 91t-59 63t-84.5 23t-85 -23t-59 -63t-21 -91t21 -91.5
t58.5 -63.5t85.5 -23z" />
    <glyph glyph-name="r" unicode="r" horiz-adv-x="362" 
d="M66 0v541h108v-109l-10 16q18 53 58 76.5t96 23.5h33v-103h-47q-56 0 -90.5 -34.5t-34.5 -98.5v-312h-113z" />
    <glyph glyph-name="s" unicode="s" horiz-adv-x="512" 
d="M266 -12q-83 0 -145.5 41t-87.5 110l87 41q22 -46 60.5 -73t85.5 -27q40 0 65 18t25 49q0 20 -11 32.5t-27.5 20.5t-33.5 12l-85 24q-70 20 -104.5 60.5t-34.5 94.5q0 49 25 85.5t69 56.5t99 20q74 0 132 -36.5t82 -101.5l-87 -41q-16 39 -50.5 62t-77.5 23
q-37 0 -59 -17.5t-22 -45.5q0 -19 10 -31.5t26 -20t33 -12.5l88 -26q67 -19 103 -59.5t36 -96.5q0 -48 -25.5 -84.5t-70.5 -57t-105 -20.5z" />
    <glyph glyph-name="t" unicode="t" horiz-adv-x="405" 
d="M300 -6q-85 0 -132 48t-47 135v262h-95v102h15q38 0 59 22t21 60v42h113v-124h123v-102h-123v-257q0 -28 9 -47.5t29 -30t52 -10.5q8 0 18 1t19 2v-97q-14 -2 -31 -4t-30 -2z" />
    <glyph glyph-name="u" unicode="u" 
d="M259 -12q-61 0 -107 27.5t-71.5 77t-25.5 114.5v334h113v-324q0 -37 15 -65t42 -43.5t62 -15.5q36 0 63 16t42.5 45t15.5 68v319h112v-541h-107v106l12 -14q-19 -50 -63 -77t-103 -27z" />
    <glyph glyph-name="v" unicode="v" horiz-adv-x="550" 
d="M223 0l-212 541h123l163 -441h-45l163 441h124l-213 -541h-103z" />
    <glyph glyph-name="w" unicode="w" horiz-adv-x="855" 
d="M197 0l-186 541h120l142 -431h-42l145 431h103l144 -431h-42l143 431h120l-187 -541h-102l-146 441h37l-146 -441h-103z" />
    <glyph glyph-name="x" unicode="x" horiz-adv-x="535" 
d="M12 0l189 271l-189 270h133l155 -226h-64l155 226h133l-190 -270l189 -271h-133l-153 227h62l-154 -227h-133z" />
    <glyph glyph-name="y" unicode="y" horiz-adv-x="569" 
d="M114 -221q-20 0 -39.5 3.5t-35.5 10.5v97q12 -3 29 -5.5t33 -2.5q47 0 69.5 20.5t40.5 63.5l36 82l-2 -95l-234 588h121l173 -451h-41l172 451h122l-239 -600q-19 -48 -47.5 -84.5t-67 -57t-90.5 -20.5z" />
    <glyph glyph-name="z" unicode="z" horiz-adv-x="471" 
d="M17 0v93l318 385l18 -39h-321v102h421v-92l-314 -386l-18 40h333v-103h-437z" />
    <glyph glyph-name="braceleft" unicode="{" horiz-adv-x="371" 
d="M286 -160q-77 0 -121.5 41.5t-44.5 112.5v182q0 29 -14 46t-42 17h-30v100h30q28 0 42 17.5t14 46.5v188q0 72 44.5 113t121.5 41h42v-100h-42q-24 0 -37.5 -15t-13.5 -41v-177q1 -38 -13 -69.5t-42 -52.5q27 -18 41.5 -49t13.5 -67v-178q0 -25 13.5 -40.5t37.5 -15.5h42
v-100h-42z" />
    <glyph glyph-name="bar" unicode="|" horiz-adv-x="363" 
d="M124 -190v1035h115v-1035h-115z" />
    <glyph glyph-name="braceright" unicode="}" horiz-adv-x="371" 
d="M43 -160v100h42q24 0 38 15.5t13 40.5v178q0 36 14.5 67t41.5 49q-28 21 -42.5 52.5t-13.5 69.5v177q1 26 -13 41t-38 15h-42v100h42q78 0 122 -41t44 -113v-188q0 -29 14.5 -46.5t41.5 -17.5h30v-100h-30q-27 0 -41.5 -17t-14.5 -46v-182q0 -71 -44 -112.5t-122 -41.5
h-42z" />
    <glyph glyph-name="asciitilde" unicode="~" horiz-adv-x="642" 
d="M419 200q-34 0 -57.5 10t-42.5 23.5t-37 23.5t-40 10q-26 0 -42 -16t-21 -47h-93q5 79 42.5 119.5t100.5 40.5q33 0 57 -10t42.5 -23.5t37 -23.5t39.5 -10q23 0 38.5 14.5t20.5 48.5h93q-5 -78 -40.5 -119t-97.5 -41z" />
    <glyph glyph-name="uni00A0" unicode="&#xa0;" horiz-adv-x="175" 
 />
    <glyph glyph-name="exclamdown" unicode="&#xa1;" horiz-adv-x="341" 
d="M113 -204l8 523h100l7 -523h-115zM113 411v130h115v-130h-115z" />
    <glyph glyph-name="cent" unicode="&#xa2;" horiz-adv-x="606" 
d="M323 91q-81 0 -143.5 37t-99 101.5t-36.5 144.5q0 81 36 144.5t99 100.5t144 37q55 0 103 -19.5t83.5 -53.5t52.5 -80l-99 -45q-17 42 -54.5 67.5t-85.5 25.5q-46 0 -82.5 -23t-57.5 -63t-21 -92q0 -51 21 -91t57.5 -63t82.5 -23q49 0 85.5 25.5t54.5 68.5l99 -47
q-16 -44 -51.5 -78.5t-83.5 -54t-104 -19.5zM279 0v745h80v-745h-80z" />
    <glyph glyph-name="sterling" unicode="&#xa3;" horiz-adv-x="657" 
d="M39 0v100h100v423q0 70 29.5 122.5t84.5 82t130 29.5q60 0 110.5 -23t84 -65t40.5 -100l-104 -30q-7 55 -43 84t-88 29q-60 0 -93.5 -34t-33.5 -95v-423h329v-100h-546zM39 340v78h396v-78h-396z" />
    <glyph glyph-name="currency" unicode="&#xa4;" horiz-adv-x="592" 
d="M111 17l-67 67l78 78q-15 23 -23 50.5t-8 56.5t8 56.5t23 50.5l-78 78l67 67l78 -78q24 15 51 23.5t56 8.5t56.5 -8t51.5 -24l77 78l67 -67l-77 -78q14 -23 22.5 -50t8.5 -57t-8.5 -57t-22.5 -50l77 -78l-67 -67l-77 78q-23 -15 -50.5 -23t-57.5 -8q-28 0 -55 7.5
t-52 23.5zM296 167q29 0 52 13.5t37 37t14 51.5q0 29 -14 52t-37 37t-52 14q-28 0 -51.5 -14t-37.5 -37t-14 -52q0 -28 14 -51.5t37.5 -37t51.5 -13.5z" />
    <glyph glyph-name="yen" unicode="&#xa5;" horiz-adv-x="648" 
d="M266 0v336l-255 409h133l204 -331h-47l203 331h133l-254 -409v-336h-117zM126 295v78h396v-78h-396zM126 148v77h396v-77h-396z" />
    <glyph glyph-name="brokenbar" unicode="&#xa6;" horiz-adv-x="363" 
d="M124 428v417h115v-417h-115zM124 -190v418h115v-418h-115z" />
    <glyph glyph-name="section" unicode="&#xa7;" horiz-adv-x="532" 
d="M277 -100q-87 0 -152 43t-92 116l88 41q24 -49 65 -77.5t91 -28.5q43 0 70.5 20t27.5 53q0 21 -11.5 35t-29.5 23t-37 14l-89 25q-74 22 -110.5 64t-36.5 98q0 51 26.5 89t72.5 59.5t103 21.5l-1 -65q-41 0 -64.5 -23.5t-23.5 -60.5q0 -25 11.5 -42.5t30.5 -28t41 -17.5
l84 -25q70 -20 108 -62.5t38 -101.5q0 -50 -26.5 -88t-73.5 -60t-110 -22zM277 161v64q43 0 70.5 23.5t27.5 64.5q0 25 -11.5 42t-31.5 29t-44 18l-80 23q-74 22 -110.5 64t-36.5 98q0 51 26.5 89t72.5 59.5t103 21.5q76 0 137 -38t87 -107l-89 -41q-17 42 -54 66.5
t-82 24.5q-41 0 -64.5 -19.5t-23.5 -49.5q0 -21 11 -35t28 -22t35 -13l93 -28q70 -20 108 -62.5t38 -101.5q0 -50 -26.5 -88t-73.5 -60t-110 -22z" />
    <glyph glyph-name="dieresis" unicode="&#xa8;" horiz-adv-x="502" 
d="M116 640v125h125v-125h-125zM321 640v125h125v-125h-125z" />
    <glyph glyph-name="copyright" unicode="&#xa9;" horiz-adv-x="924" 
d="M463 -12q-80 0 -150 30t-123 83t-83 123t-30 150q0 79 29.5 148.5t82.5 122.5t123 82.5t151 29.5q79 0 148.5 -29.5t122.5 -82.5t83 -122.5t30 -148.5q0 -81 -30 -150.5t-83 -122.5t-122.5 -83t-148.5 -30zM463 73q62 0 116.5 23t95.5 64t64 96t23 118q0 62 -23 116
t-64.5 95t-95.5 64.5t-116 23.5q-63 0 -118 -23t-96 -64t-64 -95.5t-23 -116.5q0 -63 23 -118t64 -96t96 -64t118 -23zM468 163q-59 0 -105.5 27.5t-73.5 75t-27 107.5q0 61 27 108t73.5 74t105.5 27q44 0 79.5 -14.5t60.5 -39t35 -55.5l-81 -33q-10 25 -34.5 43t-59.5 18
q-52 0 -84 -35.5t-32 -92.5t32 -93t84 -36q34 0 58.5 17.5t35.5 44.5l81 -34q-10 -30 -35 -55t-60.5 -39.5t-79.5 -14.5z" />
    <glyph glyph-name="ordfeminine" unicode="&#xaa;" horiz-adv-x="449" 
d="M176 357q-60 0 -96 30t-36 80q0 48 33.5 79.5t98.5 42.5l124 20v-72l-106 -18q-26 -5 -38.5 -16.5t-12.5 -32.5q0 -18 14 -29.5t36 -11.5q28 0 49.5 12t33.5 33t12 46v99q0 24 -18.5 40t-49.5 16q-29 0 -51.5 -16.5t-32.5 -40.5l-77 37q17 46 63 73t102 27
q70 0 114.5 -38t44.5 -98v-253h-89v64l21 1q-23 -36 -57 -55t-82 -19z" />
    <glyph glyph-name="guillemotleft" unicode="&#xab;" horiz-adv-x="629" 
d="M193 74l-153 195l153 195h126l-152 -195l152 -195h-126zM463 74l-153 195l153 195h126l-152 -195l152 -195h-126z" />
    <glyph glyph-name="logicalnot" unicode="&#xac;" horiz-adv-x="642" 
d="M471 40v161h-400v100h500v-261h-100z" />
    <glyph glyph-name="uni00AD" unicode="&#xad;" horiz-adv-x="566" 
d="M83 221v100h400v-100h-400z" />
    <glyph glyph-name="registered" unicode="&#xae;" horiz-adv-x="667" 
d="M334 272q-71 0 -129.5 34.5t-93 93t-34.5 128.5q0 71 34.5 129.5t93 92.5t129.5 34q53 0 99.5 -19.5t81.5 -54.5t55 -82t20 -100q0 -70 -34.5 -128.5t-92.5 -93t-129 -34.5zM334 338q53 0 95.5 25.5t68.5 68.5t26 96t-26 96.5t-69 69t-95 25.5q-54 0 -97 -26t-68.5 -69
t-25.5 -96t25.5 -96t69 -68.5t96.5 -25.5zM229 393v271h116q43 0 71 -22t28 -67q0 -30 -13.5 -49.5t-35.5 -30.5l59 -102h-74l-52 93h-30v-93h-69zM298 545h48q14 0 22 9t8 21q0 13 -8 21.5t-22 8.5h-48v-60z" />
    <glyph glyph-name="macron" unicode="&#xaf;" horiz-adv-x="450" 
d="M116 660v95h305v-95h-305z" />
    <glyph glyph-name="degree" unicode="&#xb0;" horiz-adv-x="517" 
d="M259 429q-47 0 -84 21.5t-59 59t-22 83.5t22 83t59 59t84 22q46 0 83.5 -22t59.5 -59t22 -83t-22 -83.5t-59.5 -59t-83.5 -21.5zM258 510q35 0 59.5 23.5t24.5 58.5q0 37 -25 60.5t-59 23.5q-35 0 -59 -23.5t-24 -60.5q0 -35 24 -58.5t59 -23.5z" />
    <glyph glyph-name="plusminus" unicode="&#xb1;" horiz-adv-x="642" 
d="M272 170v156h-201v100h201v154h100v-154h199v-100h-199v-156h-100zM71 0v100h500v-100h-500z" />
    <glyph glyph-name="uni00B2" unicode="&#xb2;" horiz-adv-x="416" 
d="M29 224v74l141 149q39 40 62 66t33 45t10 39q0 32 -20.5 50.5t-51.5 18.5q-33 0 -57 -18.5t-35 -54.5l-86 26q9 42 35.5 72.5t64 46.5t78.5 16q51 0 89 -18.5t59.5 -51.5t21.5 -76q0 -47 -25.5 -87t-69.5 -86l-122 -128h224v-83h-351z" />
    <glyph glyph-name="uni00B3" unicode="&#xb3;" horiz-adv-x="429" 
d="M206 216q-43 0 -81 16t-65 45t-37 67l85 31q13 -34 38.5 -52.5t59.5 -18.5q41 0 66 23t25 64q0 39 -24.5 61.5t-66.5 22.5q-31 0 -55 -11l-22 47l135 152h-211v83h320v-78l-135 -156l1 36q47 -1 82 -20.5t54.5 -54t19.5 -80.5q0 -50 -24.5 -90.5t-67.5 -63.5t-97 -23z
" />
    <glyph glyph-name="acute" unicode="&#xb4;" horiz-adv-x="372" 
d="M116 640l73 165h148l-109 -165h-112z" />
    <glyph glyph-name="uni00B5" unicode="&#xb5;" 
d="M55 -140v681h113v-324q0 -37 15 -65t42 -43.5t62 -15.5q36 0 63 16t42.5 45t15.5 68v319h112v-541h-107v118l13 -19q-17 -54 -61.5 -82.5t-105.5 -28.5q-35 0 -65 10t-55 29l29 37v-204h-113z" />
    <glyph glyph-name="paragraph" unicode="&#xb6;" horiz-adv-x="509" 
d="M267 -100v448q-59 0 -104.5 25.5t-71.5 70.5t-26 102q0 58 26 103t71.5 70.5t104.5 25.5h118v-845h-118z" />
    <glyph glyph-name="periodcentered" unicode="&#xb7;" horiz-adv-x="347" 
d="M116 206v130h115v-130h-115z" />
    <glyph glyph-name="cedilla" unicode="&#xb8;" horiz-adv-x="382" 
d="M227 -235q-28 0 -59 9t-52 26l26 68q15 -12 33.5 -18.5t36.5 -6.5q22 0 34.5 10t12.5 27q0 20 -23.5 32t-72.5 17l22 81h70l-11 -43q53 -8 81.5 -33t28.5 -63q0 -47 -35 -76.5t-92 -29.5z" />
    <glyph glyph-name="uni00B9" unicode="&#xb9;" horiz-adv-x="311" 
d="M118 224v438h-100v84h198v-522h-98z" />
    <glyph glyph-name="ordmasculine" unicode="&#xba;" horiz-adv-x="492" 
d="M247 357q-56 0 -102 26t-73.5 70.5t-27.5 102.5t27.5 103t73.5 70.5t102 25.5t101.5 -25.5t72.5 -70.5t27 -103t-27 -102.5t-73 -70.5t-101 -26zM247 444q30 0 53 14.5t36.5 40t13.5 57.5q0 33 -13.5 58t-36.5 40t-53 15t-54 -15t-37 -40t-13 -58q0 -32 13 -57.5t37 -40
t54 -14.5z" />
    <glyph glyph-name="guillemotright" unicode="&#xbb;" horiz-adv-x="629" 
d="M310 74l152 195l-152 195h127l153 -195l-153 -195h-127zM40 74l152 195l-152 195h127l153 -195l-153 -195h-127z" />
    <glyph glyph-name="onequarter" unicode="&#xbc;" horiz-adv-x="884" 
d="M99 328v344h-81v73h167v-417h-86zM114 0l446 745h90l-446 -745h-90zM705 0v90h-186v73l180 254h91v-255h65v-72h-65v-90h-85zM581 132l-15 30h139v189l22 -7z" />
    <glyph glyph-name="onehalf" unicode="&#xbd;" horiz-adv-x="834" 
d="M99 328v344h-81v73h167v-417h-86zM114 0l446 745h90l-446 -745h-90zM515 0v66l113 117q30 31 47 51t25 34.5t8 28.5q0 22 -15.5 35.5t-37.5 13.5t-40.5 -13t-26.5 -40l-76 24q7 33 28.5 57t52 37t62.5 13q62 0 100.5 -32.5t38.5 -84.5q0 -39 -21 -70.5t-52 -64.5l-95 -99
h173v-73h-284z" />
    <glyph glyph-name="threequarters" unicode="&#xbe;" horiz-adv-x="963" 
d="M171 321q-52 0 -94 29t-54 76l75 26q10 -25 29 -38.5t44 -13.5q30 0 48.5 17t18.5 46t-17.5 45.5t-49.5 16.5q-12 0 -24.5 -2.5t-22.5 -7.5l-19 41l106 117h-163v72h260v-68l-109 -122l2 34q56 -1 89.5 -35t33.5 -89q0 -40 -20 -73t-54.5 -52t-78.5 -19zM193 0l446 745
h90l-446 -745h-90zM784 0v90h-186v73l180 254h91v-255h65v-72h-65v-90h-85zM660 132l-15 30h139v189l22 -7z" />
    <glyph glyph-name="questiondown" unicode="&#xbf;" horiz-adv-x="555" 
d="M278 -216q-69 0 -118.5 28t-76 72.5t-26.5 93.5q0 42 17 74t42.5 59t51.5 53q32 31 56.5 65t24.5 79v11h110v-16q0 -45 -14 -79t-37 -60.5t-47 -50.5q-32 -33 -59 -62.5t-27 -70.5q0 -24 12 -45t35.5 -33.5t57.5 -12.5q47 0 80.5 29t41.5 77l105 -25q-8 -55 -39.5 -97
t-80 -65.5t-109.5 -23.5zM245 411v130h115v-130h-115z" />
    <glyph glyph-name="Agrave" unicode="&#xc0;" horiz-adv-x="692" 
d="M11 0l262 745h146l262 -745h-126l-57 167h-303l-58 -167h-126zM229 272h233l-132 390h33zM291 844l-109 165h148l73 -165h-112z" />
    <glyph glyph-name="Aacute" unicode="&#xc1;" horiz-adv-x="692" 
d="M11 0l262 745h146l262 -745h-126l-57 167h-303l-58 -167h-126zM229 272h233l-132 390h33zM290 844l73 165h148l-109 -165h-112z" />
    <glyph glyph-name="Acircumflex" unicode="&#xc2;" horiz-adv-x="692" 
d="M11 0l262 745h146l262 -745h-126l-57 167h-303l-58 -167h-126zM229 272h233l-132 390h33zM162 844l118 160h132l119 -160h-116l-69 91l-68 -91h-116z" />
    <glyph glyph-name="Atilde" unicode="&#xc3;" horiz-adv-x="692" 
d="M11 0l262 745h146l262 -745h-126l-57 167h-303l-58 -167h-126zM229 272h233l-132 390h33zM415 844q-27 0 -44.5 9t-30 20t-25 20t-29.5 9t-26 -13t-9 -41h-89q0 74 33 109.5t82 35.5q28 0 45.5 -8.5t30.5 -20t25.5 -20t28.5 -8.5q19 0 27.5 14t8.5 39h88
q0 -70 -33.5 -107.5t-82.5 -37.5z" />
    <glyph glyph-name="Adieresis" unicode="&#xc4;" horiz-adv-x="692" 
d="M11 0l262 745h146l262 -745h-126l-57 167h-303l-58 -167h-126zM229 272h233l-132 390h33zM181 844v125h125v-125h-125zM386 844v125h125v-125h-125z" />
    <glyph glyph-name="Aring" unicode="&#xc5;" horiz-adv-x="692" 
d="M11 0l262 745h146l262 -745h-126l-57 167h-303l-58 -167h-126zM229 272h233l-132 390h33zM346 809q-50 0 -85 32t-35 85q0 52 35 84t85 32t85 -32t35 -84t-35 -84.5t-85 -32.5zM346 880q20 0 32.5 12.5t12.5 33.5q0 20 -12.5 33t-32.5 13q-19 0 -32 -12.5t-13 -33.5
t13 -33.5t32 -12.5z" />
    <glyph glyph-name="AE" unicode="&#xc6;" horiz-adv-x="989" 
d="M11 0l262 745h683v-105h-373v-214h353v-105h-353v-216h373v-105h-490v167h-271l-58 -167h-126zM229 272h237v368h-110z" />
    <glyph glyph-name="Ccedilla" unicode="&#xc7;" horiz-adv-x="777" 
d="M424 -12q-79 0 -146.5 29t-117 80.5t-77.5 121.5t-28 154q0 83 27.5 153.5t77.5 122t117 80t147 28.5q79 0 141.5 -27t105.5 -70.5t62 -94.5l-106 -50q-24 60 -76.5 97.5t-126.5 37.5t-131 -35t-88.5 -97t-31.5 -145t31.5 -145.5t88.5 -97t131 -34.5t126.5 37t76.5 97
l106 -50q-19 -50 -62 -94t-105.5 -71t-141.5 -27zM436 -235q-28 0 -59 9t-52 26l26 68q15 -12 33.5 -18.5t36.5 -6.5q22 0 34.5 10t12.5 27q0 20 -23.5 32t-72.5 17l22 81h70l-11 -43q53 -8 81.5 -33t28.5 -63q0 -47 -35 -76.5t-92 -29.5z" />
    <glyph glyph-name="Egrave" unicode="&#xc8;" horiz-adv-x="601" 
d="M77 0v745h491v-105h-373v-214h353v-105h-353v-216h373v-105h-491zM267 844l-109 165h148l73 -165h-112z" />
    <glyph glyph-name="Eacute" unicode="&#xc9;" horiz-adv-x="601" 
d="M77 0v745h491v-105h-373v-214h353v-105h-353v-216h373v-105h-491zM267 844l73 165h148l-109 -165h-112z" />
    <glyph glyph-name="Ecircumflex" unicode="&#xca;" horiz-adv-x="601" 
d="M77 0v745h491v-105h-373v-214h353v-105h-353v-216h373v-105h-491zM139 844l118 160h132l119 -160h-116l-69 91l-68 -91h-116z" />
    <glyph glyph-name="Edieresis" unicode="&#xcb;" horiz-adv-x="601" 
d="M77 0v745h491v-105h-373v-214h353v-105h-353v-216h373v-105h-491zM158 844v125h125v-125h-125zM363 844v125h125v-125h-125z" />
    <glyph glyph-name="Igrave" unicode="&#xcc;" horiz-adv-x="272" 
d="M77 0v745h118v-745h-118zM81 844l-109 165h148l73 -165h-112z" />
    <glyph glyph-name="Iacute" unicode="&#xcd;" horiz-adv-x="272" 
d="M77 0v745h118v-745h-118zM80 844l73 165h148l-109 -165h-112z" />
    <glyph glyph-name="Icircumflex" unicode="&#xce;" horiz-adv-x="272" 
d="M77 0v745h118v-745h-118zM-48 844l118 160h132l119 -160h-116l-69 91l-68 -91h-116z" />
    <glyph glyph-name="Idieresis" unicode="&#xcf;" horiz-adv-x="272" 
d="M77 0v745h118v-745h-118zM-29 844v125h125v-125h-125zM176 844v125h125v-125h-125z" />
    <glyph glyph-name="Eth" unicode="&#xd0;" horiz-adv-x="741" 
d="M20 323v100h333v-100h-333zM77 0v745h244q116 0 201.5 -46.5t132.5 -130.5t47 -195q0 -110 -47 -194.5t-132.5 -131.5t-201.5 -47h-244zM195 105h128q79 0 137.5 33t90.5 93t32 142t-32.5 141.5t-90.5 92.5t-137 33h-128v-535z" />
    <glyph glyph-name="Ntilde" unicode="&#xd1;" horiz-adv-x="739" 
d="M77 0v745h95l418 -577l-45 -7v584h117v-745h-95l-415 581l43 8v-589h-118zM438 844q-27 0 -44.5 9t-30 20t-25 20t-29.5 9t-26 -13t-9 -41h-89q0 74 33 109.5t82 35.5q28 0 45.5 -8.5t30.5 -20t25.5 -20t28.5 -8.5q19 0 27.5 14t8.5 39h88q0 -70 -33.5 -107.5
t-82.5 -37.5z" />
    <glyph glyph-name="Ograve" unicode="&#xd2;" horiz-adv-x="878" 
d="M439 -12q-81 0 -150.5 29t-122 81t-82 122t-29.5 153t29.5 153.5t81.5 122t122 80t151 28.5q82 0 151.5 -28.5t122 -80.5t81.5 -122t29 -153t-29.5 -153t-81.5 -122t-122 -81t-151 -29zM439 96q58 0 106.5 21t84.5 58.5t56 88t20 109.5t-20 109t-56 88t-84.5 59
t-106.5 21t-106.5 -21t-84.5 -59t-55.5 -88t-19.5 -109t19.5 -109.5t55.5 -88t85 -58.5t106 -21zM384 844l-109 165h148l73 -165h-112z" />
    <glyph glyph-name="Oacute" unicode="&#xd3;" horiz-adv-x="878" 
d="M439 -12q-81 0 -150.5 29t-122 81t-82 122t-29.5 153t29.5 153.5t81.5 122t122 80t151 28.5q82 0 151.5 -28.5t122 -80.5t81.5 -122t29 -153t-29.5 -153t-81.5 -122t-122 -81t-151 -29zM439 96q58 0 106.5 21t84.5 58.5t56 88t20 109.5t-20 109t-56 88t-84.5 59
t-106.5 21t-106.5 -21t-84.5 -59t-55.5 -88t-19.5 -109t19.5 -109.5t55.5 -88t85 -58.5t106 -21zM383 844l73 165h148l-109 -165h-112z" />
    <glyph glyph-name="Ocircumflex" unicode="&#xd4;" horiz-adv-x="878" 
d="M439 -12q-81 0 -150.5 29t-122 81t-82 122t-29.5 153t29.5 153.5t81.5 122t122 80t151 28.5q82 0 151.5 -28.5t122 -80.5t81.5 -122t29 -153t-29.5 -153t-81.5 -122t-122 -81t-151 -29zM439 96q58 0 106.5 21t84.5 58.5t56 88t20 109.5t-20 109t-56 88t-84.5 59
t-106.5 21t-106.5 -21t-84.5 -59t-55.5 -88t-19.5 -109t19.5 -109.5t55.5 -88t85 -58.5t106 -21zM255 844l118 160h132l119 -160h-116l-69 91l-68 -91h-116z" />
    <glyph glyph-name="Otilde" unicode="&#xd5;" horiz-adv-x="878" 
d="M439 -12q-81 0 -150.5 29t-122 81t-82 122t-29.5 153t29.5 153.5t81.5 122t122 80t151 28.5q82 0 151.5 -28.5t122 -80.5t81.5 -122t29 -153t-29.5 -153t-81.5 -122t-122 -81t-151 -29zM439 96q58 0 106.5 21t84.5 58.5t56 88t20 109.5t-20 109t-56 88t-84.5 59
t-106.5 21t-106.5 -21t-84.5 -59t-55.5 -88t-19.5 -109t19.5 -109.5t55.5 -88t85 -58.5t106 -21zM508 844q-27 0 -44.5 9t-30 20t-25 20t-29.5 9t-26 -13t-9 -41h-89q0 74 33 109.5t82 35.5q28 0 45.5 -8.5t30.5 -20t25.5 -20t28.5 -8.5q19 0 27.5 14t8.5 39h88
q0 -70 -33.5 -107.5t-82.5 -37.5z" />
    <glyph glyph-name="Odieresis" unicode="&#xd6;" horiz-adv-x="878" 
d="M439 -12q-81 0 -150.5 29t-122 81t-82 122t-29.5 153t29.5 153.5t81.5 122t122 80t151 28.5q82 0 151.5 -28.5t122 -80.5t81.5 -122t29 -153t-29.5 -153t-81.5 -122t-122 -81t-151 -29zM439 96q58 0 106.5 21t84.5 58.5t56 88t20 109.5t-20 109t-56 88t-84.5 59
t-106.5 21t-106.5 -21t-84.5 -59t-55.5 -88t-19.5 -109t19.5 -109.5t55.5 -88t85 -58.5t106 -21zM274 844v125h125v-125h-125zM479 844v125h125v-125h-125z" />
    <glyph glyph-name="multiply" unicode="&#xd7;" horiz-adv-x="642" 
d="M165 0l-70 71l156 156l-156 155l71 71l155 -155l155 155l71 -71l-155 -155l156 -156l-71 -71l-156 156z" />
    <glyph glyph-name="Oslash" unicode="&#xd8;" horiz-adv-x="878" 
d="M66 0l610 745h136l-610 -745h-136zM439 -12q-81 0 -150.5 29t-122 81t-82 122t-29.5 153t29.5 153.5t81.5 122t122 80t151 28.5q82 0 151.5 -28.5t122 -80.5t81.5 -122t29 -153t-29.5 -153t-81.5 -122t-122 -81t-151 -29zM439 96q58 0 106.5 21t84.5 58.5t56 88t20 109.5
t-20 109t-56 88t-84.5 59t-106.5 21t-106.5 -21t-84.5 -59t-55.5 -88t-19.5 -109t19.5 -109.5t55.5 -88t85 -58.5t106 -21z" />
    <glyph glyph-name="Ugrave" unicode="&#xd9;" horiz-adv-x="712" 
d="M356 -12q-83 0 -147.5 35t-101 96t-36.5 139v487h118v-482q0 -49 21.5 -87t59 -59t86.5 -21q50 0 87.5 21t59 59t21.5 87v482h117v-487q0 -78 -36 -139t-100.5 -96t-148.5 -35zM301 844l-109 165h148l73 -165h-112z" />
    <glyph glyph-name="Uacute" unicode="&#xda;" horiz-adv-x="712" 
d="M356 -12q-83 0 -147.5 35t-101 96t-36.5 139v487h118v-482q0 -49 21.5 -87t59 -59t86.5 -21q50 0 87.5 21t59 59t21.5 87v482h117v-487q0 -78 -36 -139t-100.5 -96t-148.5 -35zM300 844l73 165h148l-109 -165h-112z" />
    <glyph glyph-name="Ucircumflex" unicode="&#xdb;" horiz-adv-x="712" 
d="M356 -12q-83 0 -147.5 35t-101 96t-36.5 139v487h118v-482q0 -49 21.5 -87t59 -59t86.5 -21q50 0 87.5 21t59 59t21.5 87v482h117v-487q0 -78 -36 -139t-100.5 -96t-148.5 -35zM172 844l118 160h132l119 -160h-116l-69 91l-68 -91h-116z" />
    <glyph glyph-name="Udieresis" unicode="&#xdc;" horiz-adv-x="712" 
d="M356 -12q-83 0 -147.5 35t-101 96t-36.5 139v487h118v-482q0 -49 21.5 -87t59 -59t86.5 -21q50 0 87.5 21t59 59t21.5 87v482h117v-487q0 -78 -36 -139t-100.5 -96t-148.5 -35zM191 844v125h125v-125h-125zM396 844v125h125v-125h-125z" />
    <glyph glyph-name="Yacute" unicode="&#xdd;" horiz-adv-x="648" 
d="M266 0v336l-255 409h133l204 -331h-47l203 331h133l-254 -409v-336h-117zM268 844l73 165h148l-109 -165h-112z" />
    <glyph glyph-name="Thorn" unicode="&#xde;" horiz-adv-x="645" 
d="M70 0v745h118v-140h153q75 0 132.5 -27.5t89.5 -80t32 -125.5q0 -72 -32.5 -124t-89.5 -80t-132 -28h-153v-140h-118zM188 245h156q40 0 70 16t47 44.5t17 67.5t-17 67.5t-47 44t-70 15.5h-156v-255z" />
    <glyph glyph-name="germandbls" unicode="&#xdf;" horiz-adv-x="629" 
d="M77 -155v670q0 75 32 129.5t87 83.5t126 29q70 0 122 -25.5t81 -71.5t29 -107q0 -58 -30 -104t-85 -64l-6 31q79 -27 115.5 -73.5t36.5 -118.5q0 -68 -30 -118.5t-85 -78t-131 -27.5h-64v100h59q60 0 96.5 34t36.5 90q0 55 -36 88t-97 33h-59v100h51q33 0 57.5 14t39 38
t14.5 55t-14.5 54.5t-40.5 37t-61 13.5q-38 0 -68 -17t-46.5 -48.5t-16.5 -76.5v-670h-113z" />
    <glyph glyph-name="agrave" unicode="&#xe0;" horiz-adv-x="578" 
d="M228 -12q-55 0 -96.5 19.5t-64.5 54t-23 81.5q0 44 19.5 79t60.5 59t103 34l188 31v-89l-166 -29q-45 -8 -66 -28.5t-21 -52.5q0 -31 23.5 -50.5t60.5 -19.5q46 0 80.5 20t53.5 53.5t19 74.5v139q0 40 -29.5 65.5t-78.5 25.5q-45 0 -78.5 -23.5t-49.5 -60.5l-94 47
q15 40 49 70.5t79.5 47.5t96.5 17q64 0 113.5 -24t77 -66.5t27.5 -98.5v-364h-108v98l23 -3q-19 -33 -48.5 -57t-67 -37t-83.5 -13zM239 640l-109 165h148l73 -165h-112z" />
    <glyph glyph-name="aacute" unicode="&#xe1;" horiz-adv-x="578" 
d="M228 -12q-55 0 -96.5 19.5t-64.5 54t-23 81.5q0 44 19.5 79t60.5 59t103 34l188 31v-89l-166 -29q-45 -8 -66 -28.5t-21 -52.5q0 -31 23.5 -50.5t60.5 -19.5q46 0 80.5 20t53.5 53.5t19 74.5v139q0 40 -29.5 65.5t-78.5 25.5q-45 0 -78.5 -23.5t-49.5 -60.5l-94 47
q15 40 49 70.5t79.5 47.5t96.5 17q64 0 113.5 -24t77 -66.5t27.5 -98.5v-364h-108v98l23 -3q-19 -33 -48.5 -57t-67 -37t-83.5 -13zM239 640l73 165h148l-109 -165h-112z" />
    <glyph glyph-name="acircumflex" unicode="&#xe2;" horiz-adv-x="578" 
d="M228 -12q-55 0 -96.5 19.5t-64.5 54t-23 81.5q0 44 19.5 79t60.5 59t103 34l188 31v-89l-166 -29q-45 -8 -66 -28.5t-21 -52.5q0 -31 23.5 -50.5t60.5 -19.5q46 0 80.5 20t53.5 53.5t19 74.5v139q0 40 -29.5 65.5t-78.5 25.5q-45 0 -78.5 -23.5t-49.5 -60.5l-94 47
q15 40 49 70.5t79.5 47.5t96.5 17q64 0 113.5 -24t77 -66.5t27.5 -98.5v-364h-108v98l23 -3q-19 -33 -48.5 -57t-67 -37t-83.5 -13zM111 640l118 160h132l119 -160h-116l-69 91l-68 -91h-116z" />
    <glyph glyph-name="atilde" unicode="&#xe3;" horiz-adv-x="578" 
d="M228 -12q-55 0 -96.5 19.5t-64.5 54t-23 81.5q0 44 19.5 79t60.5 59t103 34l188 31v-89l-166 -29q-45 -8 -66 -28.5t-21 -52.5q0 -31 23.5 -50.5t60.5 -19.5q46 0 80.5 20t53.5 53.5t19 74.5v139q0 40 -29.5 65.5t-78.5 25.5q-45 0 -78.5 -23.5t-49.5 -60.5l-94 47
q15 40 49 70.5t79.5 47.5t96.5 17q64 0 113.5 -24t77 -66.5t27.5 -98.5v-364h-108v98l23 -3q-19 -33 -48.5 -57t-67 -37t-83.5 -13zM363 640q-27 0 -44.5 9t-30 20t-25 20t-29.5 9t-26 -13t-9 -41h-89q0 74 33 109.5t82 35.5q28 0 45.5 -8.5t30.5 -20t25.5 -20t28.5 -8.5
q19 0 27.5 14t8.5 39h88q0 -70 -33.5 -107.5t-82.5 -37.5z" />
    <glyph glyph-name="adieresis" unicode="&#xe4;" horiz-adv-x="578" 
d="M228 -12q-55 0 -96.5 19.5t-64.5 54t-23 81.5q0 44 19.5 79t60.5 59t103 34l188 31v-89l-166 -29q-45 -8 -66 -28.5t-21 -52.5q0 -31 23.5 -50.5t60.5 -19.5q46 0 80.5 20t53.5 53.5t19 74.5v139q0 40 -29.5 65.5t-78.5 25.5q-45 0 -78.5 -23.5t-49.5 -60.5l-94 47
q15 40 49 70.5t79.5 47.5t96.5 17q64 0 113.5 -24t77 -66.5t27.5 -98.5v-364h-108v98l23 -3q-19 -33 -48.5 -57t-67 -37t-83.5 -13zM130 640v125h125v-125h-125zM335 640v125h125v-125h-125z" />
    <glyph glyph-name="aring" unicode="&#xe5;" horiz-adv-x="578" 
d="M228 -12q-55 0 -96.5 19.5t-64.5 54t-23 81.5q0 44 19.5 79t60.5 59t103 34l188 31v-89l-166 -29q-45 -8 -66 -28.5t-21 -52.5q0 -31 23.5 -50.5t60.5 -19.5q46 0 80.5 20t53.5 53.5t19 74.5v139q0 40 -29.5 65.5t-78.5 25.5q-45 0 -78.5 -23.5t-49.5 -60.5l-94 47
q15 40 49 70.5t79.5 47.5t96.5 17q64 0 113.5 -24t77 -66.5t27.5 -98.5v-364h-108v98l23 -3q-19 -33 -48.5 -57t-67 -37t-83.5 -13zM295 605q-50 0 -85 32t-35 85q0 52 35 84t85 32t85 -32t35 -84t-35 -84.5t-85 -32.5zM295 676q20 0 32.5 12.5t12.5 33.5q0 20 -12.5 33
t-32.5 13q-19 0 -32 -12.5t-13 -33.5t13 -33.5t32 -12.5z" />
    <glyph glyph-name="ae" unicode="&#xe6;" horiz-adv-x="972" 
d="M228 -12q-55 0 -96.5 19.5t-64.5 54t-23 81.5q0 44 19.5 79t60.5 59t103 34l172 28v21q0 40 -29.5 65.5t-78.5 25.5q-45 0 -78.5 -23.5t-49.5 -60.5l-94 47q15 40 49 70.5t79.5 47.5t96.5 17q71 0 123.5 -30t76.5 -80h-38q35 51 90.5 80.5t123.5 29.5q61 0 109 -21
t81 -57.5t50.5 -83.5t17.5 -100q0 -13 -1 -27t-4 -26h-402q3 -45 24.5 -79t56.5 -52.5t78 -18.5q49 0 83.5 22t54.5 57l92 -45q-16 -38 -49 -68.5t-77.5 -48t-94.5 -17.5q-66 0 -119.5 26t-90.5 77l24 23v-114h-99v116l21 -25q-20 -32 -49 -55t-66 -35.5t-82 -12.5zM246 77
q46 0 80.5 20t53.5 53.5t19 74.5v29l-150 -26q-45 -8 -66 -28.5t-21 -52.5q0 -31 23.5 -50.5t60.5 -19.5zM523 328h285q-1 39 -19.5 68t-49.5 45.5t-69 16.5q-36 0 -67.5 -15.5t-52 -44.5t-27.5 -70z" />
    <glyph glyph-name="ccedilla" unicode="&#xe7;" horiz-adv-x="606" 
d="M323 -12q-81 0 -143.5 37.5t-99 101.5t-36.5 145q0 80 36 144t99 100.5t144 36.5q55 0 103 -19.5t83.5 -53.5t52.5 -79l-99 -46q-17 42 -54.5 67.5t-85.5 25.5q-46 0 -82.5 -22.5t-57.5 -63t-21 -91.5t21 -91.5t57.5 -63.5t82.5 -23q49 0 85.5 25.5t54.5 68.5l99 -47
q-16 -43 -51.5 -77.5t-83.5 -54.5t-104 -20zM334 -235q-28 0 -59 9t-52 26l26 68q15 -12 33.5 -18.5t36.5 -6.5q22 0 34.5 10t12.5 27q0 20 -23.5 32t-72.5 17l22 81h70l-11 -43q53 -8 81.5 -33t28.5 -63q0 -47 -35 -76.5t-92 -29.5z" />
    <glyph glyph-name="egrave" unicode="&#xe8;" horiz-adv-x="613" 
d="M320 -12q-81 0 -143.5 37.5t-97.5 102t-35 144.5q0 82 35.5 145t95.5 99.5t136 36.5q61 0 109 -21t81 -57.5t50.5 -83.5t17.5 -100q0 -13 -1 -27t-4 -26h-431v90h367l-54 -41q10 49 -6.5 87.5t-50 61t-78.5 22.5t-80 -22.5t-54 -64t-15 -100.5q-5 -55 15.5 -96t58 -64
t85.5 -23q49 0 83.5 22t54.5 57l92 -45q-16 -38 -49.5 -68.5t-80 -48t-101.5 -17.5zM252 640l-109 165h148l73 -165h-112z" />
    <glyph glyph-name="eacute" unicode="&#xe9;" horiz-adv-x="613" 
d="M320 -12q-81 0 -143.5 37.5t-97.5 102t-35 144.5q0 82 35.5 145t95.5 99.5t136 36.5q61 0 109 -21t81 -57.5t50.5 -83.5t17.5 -100q0 -13 -1 -27t-4 -26h-431v90h367l-54 -41q10 49 -6.5 87.5t-50 61t-78.5 22.5t-80 -22.5t-54 -64t-15 -100.5q-5 -55 15.5 -96t58 -64
t85.5 -23q49 0 83.5 22t54.5 57l92 -45q-16 -38 -49.5 -68.5t-80 -48t-101.5 -17.5zM251 640l73 165h148l-109 -165h-112z" />
    <glyph glyph-name="ecircumflex" unicode="&#xea;" horiz-adv-x="613" 
d="M320 -12q-81 0 -143.5 37.5t-97.5 102t-35 144.5q0 82 35.5 145t95.5 99.5t136 36.5q61 0 109 -21t81 -57.5t50.5 -83.5t17.5 -100q0 -13 -1 -27t-4 -26h-431v90h367l-54 -41q10 49 -6.5 87.5t-50 61t-78.5 22.5t-80 -22.5t-54 -64t-15 -100.5q-5 -55 15.5 -96t58 -64
t85.5 -23q49 0 83.5 22t54.5 57l92 -45q-16 -38 -49.5 -68.5t-80 -48t-101.5 -17.5zM123 640l118 160h132l119 -160h-116l-69 91l-68 -91h-116z" />
    <glyph glyph-name="edieresis" unicode="&#xeb;" horiz-adv-x="613" 
d="M320 -12q-81 0 -143.5 37.5t-97.5 102t-35 144.5q0 82 35.5 145t95.5 99.5t136 36.5q61 0 109 -21t81 -57.5t50.5 -83.5t17.5 -100q0 -13 -1 -27t-4 -26h-431v90h367l-54 -41q10 49 -6.5 87.5t-50 61t-78.5 22.5t-80 -22.5t-54 -64t-15 -100.5q-5 -55 15.5 -96t58 -64
t85.5 -23q49 0 83.5 22t54.5 57l92 -45q-16 -38 -49.5 -68.5t-80 -48t-101.5 -17.5zM142 640v125h125v-125h-125zM347 640v125h125v-125h-125z" />
    <glyph glyph-name="igrave" unicode="&#xec;" horiz-adv-x="219" 
d="M53 0v541h113v-541h-113zM54 640l-109 165h148l73 -165h-112z" />
    <glyph glyph-name="iacute" unicode="&#xed;" horiz-adv-x="219" 
d="M53 0v541h113v-541h-113zM53 640l73 165h148l-109 -165h-112z" />
    <glyph glyph-name="icircumflex" unicode="&#xee;" horiz-adv-x="219" 
d="M53 0v541h113v-541h-113zM-75 640l118 160h132l119 -160h-116l-69 91l-68 -91h-116z" />
    <glyph glyph-name="idieresis" unicode="&#xef;" horiz-adv-x="219" 
d="M53 0v541h113v-541h-113zM-56 640v125h125v-125h-125zM149 640v125h125v-125h-125z" />
    <glyph glyph-name="eth" unicode="&#xf0;" horiz-adv-x="653" 
d="M330 -12q-59 0 -111 21t-91 58.5t-61.5 88.5t-22.5 112q0 78 36.5 140.5t99.5 98.5t142 36q35 0 68 -8.5t62 -27t53 -50.5l-21 -42q-1 51 -16 94t-41.5 77.5t-63 59t-78.5 37.5t-89 13q-26 0 -53.5 -4.5t-54.5 -13.5l-16 93q73 25 141 25q75 0 137.5 -25.5t110.5 -70.5
t81 -104.5t50 -128.5t17 -142q0 -115 -37 -189.5t-100 -111t-142 -36.5zM327 93q48 0 85 23t58.5 62.5t21.5 89.5q0 48 -20.5 86.5t-57.5 61t-87 22.5q-48 0 -85.5 -22.5t-58.5 -61t-21 -87.5q0 -50 22 -89.5t59.5 -62t83.5 -22.5zM229 572v59l326 124v-60z" />
    <glyph glyph-name="ntilde" unicode="&#xf1;" 
d="M66 0v541h108v-106l-13 14q20 51 64 77.5t102 26.5q60 0 106 -26t72 -72t26 -106v-349h-112v319q0 41 -15 69.5t-42.5 44t-62.5 15.5t-62.5 -15.5t-42.5 -44.5t-15 -69v-319h-113zM362 640q-27 0 -44.5 9t-30 20t-25 20t-29.5 9t-26 -13t-9 -41h-89q0 74 33 109.5
t82 35.5q28 0 45.5 -8.5t30.5 -20t25.5 -20t28.5 -8.5q19 0 27.5 14t8.5 39h88q0 -70 -33.5 -107.5t-82.5 -37.5z" />
    <glyph glyph-name="ograve" unicode="&#xf2;" horiz-adv-x="653" 
d="M327 -12q-78 0 -142.5 37t-102.5 101t-38 145q0 82 38 145.5t102 100t143 36.5q80 0 143.5 -36.5t101 -100t37.5 -145.5t-38 -146t-102 -100.5t-142 -36.5zM327 93q48 0 85 23t58.5 63.5t21.5 91.5t-21.5 91t-58.5 63t-85 23q-47 0 -84.5 -23t-59 -63t-21.5 -91
t21.5 -91.5t59 -63.5t84.5 -23zM272 640l-109 165h148l73 -165h-112z" />
    <glyph glyph-name="oacute" unicode="&#xf3;" horiz-adv-x="653" 
d="M327 -12q-78 0 -142.5 37t-102.5 101t-38 145q0 82 38 145.5t102 100t143 36.5q80 0 143.5 -36.5t101 -100t37.5 -145.5t-38 -146t-102 -100.5t-142 -36.5zM327 93q48 0 85 23t58.5 63.5t21.5 91.5t-21.5 91t-58.5 63t-85 23q-47 0 -84.5 -23t-59 -63t-21.5 -91
t21.5 -91.5t59 -63.5t84.5 -23zM271 640l73 165h148l-109 -165h-112z" />
    <glyph glyph-name="ocircumflex" unicode="&#xf4;" horiz-adv-x="653" 
d="M327 -12q-78 0 -142.5 37t-102.5 101t-38 145q0 82 38 145.5t102 100t143 36.5q80 0 143.5 -36.5t101 -100t37.5 -145.5t-38 -146t-102 -100.5t-142 -36.5zM327 93q48 0 85 23t58.5 63.5t21.5 91.5t-21.5 91t-58.5 63t-85 23q-47 0 -84.5 -23t-59 -63t-21.5 -91
t21.5 -91.5t59 -63.5t84.5 -23zM143 640l118 160h132l119 -160h-116l-69 91l-68 -91h-116z" />
    <glyph glyph-name="otilde" unicode="&#xf5;" horiz-adv-x="653" 
d="M327 -12q-78 0 -142.5 37t-102.5 101t-38 145q0 82 38 145.5t102 100t143 36.5q80 0 143.5 -36.5t101 -100t37.5 -145.5t-38 -146t-102 -100.5t-142 -36.5zM327 93q48 0 85 23t58.5 63.5t21.5 91.5t-21.5 91t-58.5 63t-85 23q-47 0 -84.5 -23t-59 -63t-21.5 -91
t21.5 -91.5t59 -63.5t84.5 -23zM396 640q-27 0 -44.5 9t-30 20t-25 20t-29.5 9t-26 -13t-9 -41h-89q0 74 33 109.5t82 35.5q28 0 45.5 -8.5t30.5 -20t25.5 -20t28.5 -8.5q19 0 27.5 14t8.5 39h88q0 -70 -33.5 -107.5t-82.5 -37.5z" />
    <glyph glyph-name="odieresis" unicode="&#xf6;" horiz-adv-x="653" 
d="M327 -12q-78 0 -142.5 37t-102.5 101t-38 145q0 82 38 145.5t102 100t143 36.5q80 0 143.5 -36.5t101 -100t37.5 -145.5t-38 -146t-102 -100.5t-142 -36.5zM327 93q48 0 85 23t58.5 63.5t21.5 91.5t-21.5 91t-58.5 63t-85 23q-47 0 -84.5 -23t-59 -63t-21.5 -91
t21.5 -91.5t59 -63.5t84.5 -23zM162 640v125h125v-125h-125zM367 640v125h125v-125h-125z" />
    <glyph glyph-name="divide" unicode="&#xf7;" horiz-adv-x="642" 
d="M71 201v100h500v-100h-500zM264 0v111h115v-111h-115zM264 390v110h115v-110h-115z" />
    <glyph glyph-name="oslash" unicode="&#xf8;" horiz-adv-x="653" 
d="M25 0l469 541h135l-469 -541h-135zM327 -12q-78 0 -142.5 37t-102.5 101t-38 145q0 82 38 145.5t102 100t143 36.5q80 0 143.5 -36.5t101 -100t37.5 -145.5t-38 -146t-102 -100.5t-142 -36.5zM327 93q48 0 85 23t58.5 63.5t21.5 91.5t-21.5 91t-58.5 63t-85 23
q-47 0 -84.5 -23t-59 -63t-21.5 -91t21.5 -91.5t59 -63.5t84.5 -23z" />
    <glyph glyph-name="ugrave" unicode="&#xf9;" 
d="M259 -12q-61 0 -107 27.5t-71.5 77t-25.5 114.5v334h113v-324q0 -37 15 -65t42 -43.5t62 -15.5q36 0 63 16t42.5 45t15.5 68v319h112v-541h-107v106l12 -14q-19 -50 -63 -77t-103 -27zM238 640l-109 165h148l73 -165h-112z" />
    <glyph glyph-name="uacute" unicode="&#xfa;" 
d="M259 -12q-61 0 -107 27.5t-71.5 77t-25.5 114.5v334h113v-324q0 -37 15 -65t42 -43.5t62 -15.5q36 0 63 16t42.5 45t15.5 68v319h112v-541h-107v106l12 -14q-19 -50 -63 -77t-103 -27zM238 640l73 165h148l-109 -165h-112z" />
    <glyph glyph-name="ucircumflex" unicode="&#xfb;" 
d="M259 -12q-61 0 -107 27.5t-71.5 77t-25.5 114.5v334h113v-324q0 -37 15 -65t42 -43.5t62 -15.5q36 0 63 16t42.5 45t15.5 68v319h112v-541h-107v106l12 -14q-19 -50 -63 -77t-103 -27zM110 640l118 160h132l119 -160h-116l-69 91l-68 -91h-116z" />
    <glyph glyph-name="udieresis" unicode="&#xfc;" 
d="M259 -12q-61 0 -107 27.5t-71.5 77t-25.5 114.5v334h113v-324q0 -37 15 -65t42 -43.5t62 -15.5q36 0 63 16t42.5 45t15.5 68v319h112v-541h-107v106l12 -14q-19 -50 -63 -77t-103 -27zM129 640v125h125v-125h-125zM334 640v125h125v-125h-125z" />
    <glyph glyph-name="yacute" unicode="&#xfd;" horiz-adv-x="569" 
d="M114 -221q-20 0 -39.5 3.5t-35.5 10.5v97q12 -3 29 -5.5t33 -2.5q47 0 69.5 20.5t40.5 63.5l36 82l-2 -95l-234 588h121l173 -451h-41l172 451h122l-239 -600q-19 -48 -47.5 -84.5t-67 -57t-90.5 -20.5zM229 640l73 165h148l-109 -165h-112z" />
    <glyph glyph-name="thorn" unicode="&#xfe;" horiz-adv-x="670" 
d="M66 -200v945h108v-316l-13 26q30 46 80 72t114 26q77 0 138.5 -37t97 -101t35.5 -144t-35.5 -144t-96.5 -101.5t-139 -37.5q-63 0 -114.5 26t-79.5 75l18 21v-310h-113zM344 93q48 0 85 23t58.5 63.5t21.5 91.5t-21.5 91t-58.5 63t-85 23q-47 0 -84.5 -23t-59 -63
t-21.5 -91t21.5 -91.5t59 -63.5t84.5 -23z" />
    <glyph glyph-name="ydieresis" unicode="&#xff;" horiz-adv-x="569" 
d="M114 -221q-20 0 -39.5 3.5t-35.5 10.5v97q12 -3 29 -5.5t33 -2.5q47 0 69.5 20.5t40.5 63.5l36 82l-2 -95l-234 588h121l173 -451h-41l172 451h122l-239 -600q-19 -48 -47.5 -84.5t-67 -57t-90.5 -20.5zM120 640v125h125v-125h-125zM325 640v125h125v-125h-125z" />
    <glyph glyph-name="Amacron" unicode="&#x100;" horiz-adv-x="692" 
d="M11 0l262 745h146l262 -745h-126l-57 167h-303l-58 -167h-126zM229 272h233l-132 390h33zM194 864v95h305v-95h-305z" />
    <glyph glyph-name="amacron" unicode="&#x101;" horiz-adv-x="578" 
d="M228 -12q-55 0 -96.5 19.5t-64.5 54t-23 81.5q0 44 19.5 79t60.5 59t103 34l188 31v-89l-166 -29q-45 -8 -66 -28.5t-21 -52.5q0 -31 23.5 -50.5t60.5 -19.5q46 0 80.5 20t53.5 53.5t19 74.5v139q0 40 -29.5 65.5t-78.5 25.5q-45 0 -78.5 -23.5t-49.5 -60.5l-94 47
q15 40 49 70.5t79.5 47.5t96.5 17q64 0 113.5 -24t77 -66.5t27.5 -98.5v-364h-108v98l23 -3q-19 -33 -48.5 -57t-67 -37t-83.5 -13zM142 660v95h305v-95h-305z" />
    <glyph glyph-name="Abreve" unicode="&#x102;" horiz-adv-x="692" 
d="M11 0l262 745h146l262 -745h-126l-57 167h-303l-58 -167h-126zM229 272h233l-132 390h33zM347 847q-63 0 -104 22.5t-61.5 59t-21.5 78.5h110q1 -34 21 -53t56 -19t56 19t21 53h109q-1 -43 -21.5 -79.5t-61 -58.5t-103.5 -22z" />
    <glyph glyph-name="abreve" unicode="&#x103;" horiz-adv-x="578" 
d="M228 -12q-55 0 -96.5 19.5t-64.5 54t-23 81.5q0 44 19.5 79t60.5 59t103 34l188 31v-89l-166 -29q-45 -8 -66 -28.5t-21 -52.5q0 -31 23.5 -50.5t60.5 -19.5q46 0 80.5 20t53.5 53.5t19 74.5v139q0 40 -29.5 65.5t-78.5 25.5q-45 0 -78.5 -23.5t-49.5 -60.5l-94 47
q15 40 49 70.5t79.5 47.5t96.5 17q64 0 113.5 -24t77 -66.5t27.5 -98.5v-364h-108v98l23 -3q-19 -33 -48.5 -57t-67 -37t-83.5 -13zM295 643q-63 0 -104 22.5t-61.5 59t-21.5 78.5h110q1 -34 21 -53t56 -19t56 19t21 53h109q-1 -43 -21.5 -79.5t-61 -58.5t-103.5 -22z" />
    <glyph glyph-name="Aogonek" unicode="&#x104;" horiz-adv-x="692" 
d="M11 0l262 745h146l262 -745h-126l-57 167h-303l-58 -167h-126zM229 272h233l-132 390h33zM590 -235q-60 0 -96 32.5t-36 81.5q0 37 17.5 68.5t50 54t77.5 31.5h30v-33q-21 -4 -39 -19t-29 -37.5t-11 -49.5q0 -23 16 -37t37 -14q18 0 33.5 6.5t29.5 18.5l26 -68
q-20 -16 -47 -25.5t-59 -9.5z" />
    <glyph glyph-name="aogonek" unicode="&#x105;" horiz-adv-x="578" 
d="M228 -12q-55 0 -96.5 19.5t-64.5 54t-23 81.5q0 44 19.5 79t60.5 59t103 34l188 31v-89l-166 -29q-45 -8 -66 -28.5t-21 -52.5q0 -31 23.5 -50.5t60.5 -19.5q46 0 80.5 20t53.5 53.5t19 74.5v139q0 40 -29.5 65.5t-78.5 25.5q-45 0 -78.5 -23.5t-49.5 -60.5l-94 47
q15 40 49 70.5t79.5 47.5t96.5 17q64 0 113.5 -24t77 -66.5t27.5 -98.5v-364h-108v98l23 -3q-19 -33 -48.5 -57t-67 -37t-83.5 -13zM455 -235q-60 0 -96 32.5t-36 81.5q0 37 17.5 68.5t50 54t77.5 31.5h30v-33q-21 -4 -39 -19t-29 -37.5t-11 -49.5q0 -23 16 -37t37 -14
q18 0 33.5 6.5t29.5 18.5l26 -68q-20 -16 -47 -25.5t-59 -9.5z" />
    <glyph glyph-name="Cacute" unicode="&#x106;" horiz-adv-x="777" 
d="M424 -12q-79 0 -146.5 29t-117 80.5t-77.5 121.5t-28 154q0 83 27.5 153.5t77.5 122t117 80t147 28.5q79 0 141.5 -27t105.5 -70.5t62 -94.5l-106 -50q-24 60 -76.5 97.5t-126.5 37.5t-131 -35t-88.5 -97t-31.5 -145t31.5 -145.5t88.5 -97t131 -34.5t126.5 37t76.5 97
l106 -50q-19 -50 -62 -94t-105.5 -71t-141.5 -27zM368 844l73 165h148l-109 -165h-112z" />
    <glyph glyph-name="cacute" unicode="&#x107;" horiz-adv-x="606" 
d="M323 -12q-81 0 -143.5 37.5t-99 101.5t-36.5 145q0 80 36 144t99 100.5t144 36.5q55 0 103 -19.5t83.5 -53.5t52.5 -79l-99 -46q-17 42 -54.5 67.5t-85.5 25.5q-46 0 -82.5 -22.5t-57.5 -63t-21 -91.5t21 -91.5t57.5 -63.5t82.5 -23q49 0 85.5 25.5t54.5 68.5l99 -47
q-16 -43 -51.5 -77.5t-83.5 -54.5t-104 -20zM267 640l73 165h148l-109 -165h-112z" />
    <glyph glyph-name="Ccircumflex" unicode="&#x108;" horiz-adv-x="777" 
d="M424 -12q-79 0 -146.5 29t-117 80.5t-77.5 121.5t-28 154q0 83 27.5 153.5t77.5 122t117 80t147 28.5q79 0 141.5 -27t105.5 -70.5t62 -94.5l-106 -50q-24 60 -76.5 97.5t-126.5 37.5t-131 -35t-88.5 -97t-31.5 -145t31.5 -145.5t88.5 -97t131 -34.5t126.5 37t76.5 97
l106 -50q-19 -50 -62 -94t-105.5 -71t-141.5 -27zM240 844l118 160h132l119 -160h-116l-69 91l-68 -91h-116z" />
    <glyph glyph-name="ccircumflex" unicode="&#x109;" horiz-adv-x="606" 
d="M323 -12q-81 0 -143.5 37.5t-99 101.5t-36.5 145q0 80 36 144t99 100.5t144 36.5q55 0 103 -19.5t83.5 -53.5t52.5 -79l-99 -46q-17 42 -54.5 67.5t-85.5 25.5q-46 0 -82.5 -22.5t-57.5 -63t-21 -91.5t21 -91.5t57.5 -63.5t82.5 -23q49 0 85.5 25.5t54.5 68.5l99 -47
q-16 -43 -51.5 -77.5t-83.5 -54.5t-104 -20zM139 640l118 160h132l119 -160h-116l-69 91l-68 -91h-116z" />
    <glyph glyph-name="Cdotaccent" unicode="&#x10a;" horiz-adv-x="777" 
d="M424 -12q-79 0 -146.5 29t-117 80.5t-77.5 121.5t-28 154q0 83 27.5 153.5t77.5 122t117 80t147 28.5q79 0 141.5 -27t105.5 -70.5t62 -94.5l-106 -50q-24 60 -76.5 97.5t-126.5 37.5t-131 -35t-88.5 -97t-31.5 -145t31.5 -145.5t88.5 -97t131 -34.5t126.5 37t76.5 97
l106 -50q-19 -50 -62 -94t-105.5 -71t-141.5 -27zM362 844v125h125v-125h-125z" />
    <glyph glyph-name="cdotaccent" unicode="&#x10b;" horiz-adv-x="606" 
d="M323 -12q-81 0 -143.5 37.5t-99 101.5t-36.5 145q0 80 36 144t99 100.5t144 36.5q55 0 103 -19.5t83.5 -53.5t52.5 -79l-99 -46q-17 42 -54.5 67.5t-85.5 25.5q-46 0 -82.5 -22.5t-57.5 -63t-21 -91.5t21 -91.5t57.5 -63.5t82.5 -23q49 0 85.5 25.5t54.5 68.5l99 -47
q-16 -43 -51.5 -77.5t-83.5 -54.5t-104 -20zM260 640v125h125v-125h-125z" />
    <glyph glyph-name="Ccaron" unicode="&#x10c;" horiz-adv-x="777" 
d="M424 -12q-79 0 -146.5 29t-117 80.5t-77.5 121.5t-28 154q0 83 27.5 153.5t77.5 122t117 80t147 28.5q79 0 141.5 -27t105.5 -70.5t62 -94.5l-106 -50q-24 60 -76.5 97.5t-126.5 37.5t-131 -35t-88.5 -97t-31.5 -145t31.5 -145.5t88.5 -97t131 -34.5t126.5 37t76.5 97
l106 -50q-19 -50 -62 -94t-105.5 -71t-141.5 -27zM358 844l-118 160h116l68 -90l69 90h116l-119 -160h-132z" />
    <glyph glyph-name="ccaron" unicode="&#x10d;" horiz-adv-x="606" 
d="M323 -12q-81 0 -143.5 37.5t-99 101.5t-36.5 145q0 80 36 144t99 100.5t144 36.5q55 0 103 -19.5t83.5 -53.5t52.5 -79l-99 -46q-17 42 -54.5 67.5t-85.5 25.5q-46 0 -82.5 -22.5t-57.5 -63t-21 -91.5t21 -91.5t57.5 -63.5t82.5 -23q49 0 85.5 25.5t54.5 68.5l99 -47
q-16 -43 -51.5 -77.5t-83.5 -54.5t-104 -20zM256 640l-118 160h116l68 -90l69 90h116l-119 -160h-132z" />
    <glyph glyph-name="Dcaron" unicode="&#x10e;" horiz-adv-x="741" 
d="M77 0v745h244q116 0 201.5 -46.5t132.5 -130.5t47 -195q0 -110 -47 -194.5t-132.5 -131.5t-201.5 -47h-244zM195 105h128q79 0 137.5 33t90.5 93t32 142t-32.5 141.5t-90.5 92.5t-137 33h-128v-535zM312 844l-118 160h116l68 -90l69 90h116l-119 -160h-132z" />
    <glyph glyph-name="dcaron" unicode="&#x10f;" horiz-adv-x="840" 
d="M316 -12q-78 0 -139.5 37.5t-97 101.5t-35.5 144t36 144t97 101t138 37q65 0 115 -26t79 -72l-17 -26v328h112v-757h-107v110l13 -21q-28 -49 -80 -75t-114 -26zM327 93q47 0 84.5 23t59 63.5t21.5 91.5t-21.5 91t-59 63t-84.5 23t-85 -23t-59 -63t-21 -91t21 -91.5
t58.5 -63.5t85.5 -23zM670 575v182h137l-36 -182h-101z" />
    <glyph glyph-name="Dcroat" unicode="&#x110;" horiz-adv-x="741" 
d="M20 323v100h333v-100h-333zM77 0v745h244q116 0 201.5 -46.5t132.5 -130.5t47 -195q0 -110 -47 -194.5t-132.5 -131.5t-201.5 -47h-244zM195 105h128q79 0 137.5 33t90.5 93t32 142t-32.5 141.5t-90.5 92.5t-137 33h-128v-535z" />
    <glyph glyph-name="dcroat" unicode="&#x111;" horiz-adv-x="670" 
d="M403 595v90h290v-90h-290zM316 -12q-78 0 -139.5 37.5t-97 101.5t-35.5 144t36 144t97 101t138 37q65 0 115 -26t79 -72l-17 -26v328h112v-757h-107v110l13 -21q-28 -49 -80 -75t-114 -26zM327 93q47 0 84.5 23t59 63.5t21.5 91.5t-21.5 91t-59 63t-84.5 23t-85 -23
t-59 -63t-21 -91t21 -91.5t58.5 -63.5t85.5 -23z" />
    <glyph glyph-name="Emacron" unicode="&#x112;" horiz-adv-x="601" 
d="M77 0v745h491v-105h-373v-214h353v-105h-353v-216h373v-105h-491zM170 864v95h305v-95h-305z" />
    <glyph glyph-name="emacron" unicode="&#x113;" horiz-adv-x="613" 
d="M320 -12q-81 0 -143.5 37.5t-97.5 102t-35 144.5q0 82 35.5 145t95.5 99.5t136 36.5q61 0 109 -21t81 -57.5t50.5 -83.5t17.5 -100q0 -13 -1 -27t-4 -26h-431v90h367l-54 -41q10 49 -6.5 87.5t-50 61t-78.5 22.5t-80 -22.5t-54 -64t-15 -100.5q-5 -55 15.5 -96t58 -64
t85.5 -23q49 0 83.5 22t54.5 57l92 -45q-16 -38 -49.5 -68.5t-80 -48t-101.5 -17.5zM155 660v95h305v-95h-305z" />
    <glyph glyph-name="Ebreve" unicode="&#x114;" horiz-adv-x="601" 
d="M77 0v745h491v-105h-373v-214h353v-105h-353v-216h373v-105h-491zM323 847q-63 0 -104 22.5t-61.5 59t-21.5 78.5h110q1 -34 21 -53t56 -19t56 19t21 53h109q-1 -43 -21.5 -79.5t-61 -58.5t-103.5 -22z" />
    <glyph glyph-name="ebreve" unicode="&#x115;" horiz-adv-x="613" 
d="M320 -12q-81 0 -143.5 37.5t-97.5 102t-35 144.5q0 82 35.5 145t95.5 99.5t136 36.5q61 0 109 -21t81 -57.5t50.5 -83.5t17.5 -100q0 -13 -1 -27t-4 -26h-431v90h367l-54 -41q10 49 -6.5 87.5t-50 61t-78.5 22.5t-80 -22.5t-54 -64t-15 -100.5q-5 -55 15.5 -96t58 -64
t85.5 -23q49 0 83.5 22t54.5 57l92 -45q-16 -38 -49.5 -68.5t-80 -48t-101.5 -17.5zM308 643q-63 0 -104 22.5t-61.5 59t-21.5 78.5h110q1 -34 21 -53t56 -19t56 19t21 53h109q-1 -43 -21.5 -79.5t-61 -58.5t-103.5 -22z" />
    <glyph glyph-name="Edotaccent" unicode="&#x116;" horiz-adv-x="601" 
d="M77 0v745h491v-105h-373v-214h353v-105h-353v-216h373v-105h-491zM260 844v125h125v-125h-125z" />
    <glyph glyph-name="edotaccent" unicode="&#x117;" horiz-adv-x="613" 
d="M320 -12q-81 0 -143.5 37.5t-97.5 102t-35 144.5q0 82 35.5 145t95.5 99.5t136 36.5q61 0 109 -21t81 -57.5t50.5 -83.5t17.5 -100q0 -13 -1 -27t-4 -26h-431v90h367l-54 -41q10 49 -6.5 87.5t-50 61t-78.5 22.5t-80 -22.5t-54 -64t-15 -100.5q-5 -55 15.5 -96t58 -64
t85.5 -23q49 0 83.5 22t54.5 57l92 -45q-16 -38 -49.5 -68.5t-80 -48t-101.5 -17.5zM245 640v125h125v-125h-125z" />
    <glyph glyph-name="Eogonek" unicode="&#x118;" horiz-adv-x="601" 
d="M77 0v745h491v-105h-373v-214h353v-105h-353v-216h373v-105h-491zM440 -235q-60 0 -96 32.5t-36 81.5q0 37 17.5 68.5t50 54t77.5 31.5h30v-33q-21 -4 -39 -19t-29 -37.5t-11 -49.5q0 -23 16 -37t37 -14q18 0 33.5 6.5t29.5 18.5l26 -68q-20 -16 -47 -25.5t-59 -9.5z" />
    <glyph glyph-name="eogonek" unicode="&#x119;" horiz-adv-x="613" 
d="M320 -12q-81 0 -143.5 37.5t-97.5 102t-35 144.5q0 82 35.5 145t95.5 99.5t136 36.5q61 0 109 -21t81 -57.5t50.5 -83.5t17.5 -100q0 -13 -1 -27t-4 -26h-431v90h367l-54 -41q10 49 -6.5 87.5t-50 61t-78.5 22.5t-80 -22.5t-54 -64t-15 -100.5q-5 -55 15.5 -96t58 -64
t85.5 -23q49 0 83.5 22t54.5 57l92 -45q-16 -38 -49.5 -68.5t-80 -48t-101.5 -17.5zM292 -235q-60 0 -96 32.5t-36 81.5q0 37 17.5 68.5t50 54t77.5 31.5h30v-33q-21 -4 -39 -19t-29 -37.5t-11 -49.5q0 -23 16 -37t37 -14q18 0 33.5 6.5t29.5 18.5l26 -68q-20 -16 -47 -25.5
t-59 -9.5z" />
    <glyph glyph-name="Ecaron" unicode="&#x11a;" horiz-adv-x="601" 
d="M77 0v745h491v-105h-373v-214h353v-105h-353v-216h373v-105h-491zM256 844l-118 160h116l68 -90l69 90h116l-119 -160h-132z" />
    <glyph glyph-name="ecaron" unicode="&#x11b;" horiz-adv-x="613" 
d="M320 -12q-81 0 -143.5 37.5t-97.5 102t-35 144.5q0 82 35.5 145t95.5 99.5t136 36.5q61 0 109 -21t81 -57.5t50.5 -83.5t17.5 -100q0 -13 -1 -27t-4 -26h-431v90h367l-54 -41q10 49 -6.5 87.5t-50 61t-78.5 22.5t-80 -22.5t-54 -64t-15 -100.5q-5 -55 15.5 -96t58 -64
t85.5 -23q49 0 83.5 22t54.5 57l92 -45q-16 -38 -49.5 -68.5t-80 -48t-101.5 -17.5zM241 640l-118 160h116l68 -90l69 90h116l-119 -160h-132z" />
    <glyph glyph-name="Gcircumflex" unicode="&#x11c;" horiz-adv-x="813" 
d="M426 -12q-79 0 -146.5 29t-118 80.5t-78.5 121.5t-28 154q0 83 27.5 153.5t77.5 122t117 80t147 28.5q79 0 141.5 -27t105.5 -70.5t62 -94.5l-105 -51q-23 61 -76 98.5t-128 37.5q-74 0 -131 -35t-88.5 -97t-31.5 -145t32.5 -145.5t89.5 -97t131 -34.5q62 0 113.5 25.5
t82.5 72t31 108.5v51l53 -48h-282v100h346v-70q0 -82 -28 -146.5t-76 -109.5t-110 -68t-130 -23zM223 844l118 160h132l119 -160h-116l-69 91l-68 -91h-116z" />
    <glyph glyph-name="gcircumflex" unicode="&#x11d;" horiz-adv-x="655" 
d="M327 -220q-59 0 -109 19t-86 52.5t-54 78.5l104 43q14 -38 51.5 -63t92.5 -25q43 0 77 16.5t54 48t20 75.5v122l20 -23q-28 -52 -77.5 -79t-111.5 -27q-75 0 -135 35t-94.5 96t-34.5 137q0 77 34.5 137t93.5 95t135 35q62 0 110.5 -26.5t79.5 -76.5l-15 -28v119h107v-516
q0 -70 -33.5 -125.5t-92.5 -87.5t-136 -32zM321 123q45 0 80 21.5t55.5 58t20.5 82.5t-21 83t-56 58.5t-79 21.5q-46 0 -82 -21.5t-56.5 -58t-20.5 -83.5q0 -45 20.5 -82t56.5 -58.5t82 -21.5zM144 640l118 160h132l119 -160h-116l-69 91l-68 -91h-116z" />
    <glyph glyph-name="Gbreve" unicode="&#x11e;" horiz-adv-x="813" 
d="M426 -12q-79 0 -146.5 29t-118 80.5t-78.5 121.5t-28 154q0 83 27.5 153.5t77.5 122t117 80t147 28.5q79 0 141.5 -27t105.5 -70.5t62 -94.5l-105 -51q-23 61 -76 98.5t-128 37.5q-74 0 -131 -35t-88.5 -97t-31.5 -145t32.5 -145.5t89.5 -97t131 -34.5q62 0 113.5 25.5
t82.5 72t31 108.5v51l53 -48h-282v100h346v-70q0 -82 -28 -146.5t-76 -109.5t-110 -68t-130 -23zM407 847q-63 0 -104 22.5t-61.5 59t-21.5 78.5h110q1 -34 21 -53t56 -19t56 19t21 53h109q-1 -43 -21.5 -79.5t-61 -58.5t-103.5 -22z" />
    <glyph glyph-name="gbreve" unicode="&#x11f;" horiz-adv-x="655" 
d="M327 -220q-59 0 -109 19t-86 52.5t-54 78.5l104 43q14 -38 51.5 -63t92.5 -25q43 0 77 16.5t54 48t20 75.5v122l20 -23q-28 -52 -77.5 -79t-111.5 -27q-75 0 -135 35t-94.5 96t-34.5 137q0 77 34.5 137t93.5 95t135 35q62 0 110.5 -26.5t79.5 -76.5l-15 -28v119h107v-516
q0 -70 -33.5 -125.5t-92.5 -87.5t-136 -32zM321 123q45 0 80 21.5t55.5 58t20.5 82.5t-21 83t-56 58.5t-79 21.5q-46 0 -82 -21.5t-56.5 -58t-20.5 -83.5q0 -45 20.5 -82t56.5 -58.5t82 -21.5zM328 643q-63 0 -104 22.5t-61.5 59t-21.5 78.5h110q1 -34 21 -53t56 -19t56 19
t21 53h109q-1 -43 -21.5 -79.5t-61 -58.5t-103.5 -22z" />
    <glyph glyph-name="Gdotaccent" unicode="&#x120;" horiz-adv-x="813" 
d="M426 -12q-79 0 -146.5 29t-118 80.5t-78.5 121.5t-28 154q0 83 27.5 153.5t77.5 122t117 80t147 28.5q79 0 141.5 -27t105.5 -70.5t62 -94.5l-105 -51q-23 61 -76 98.5t-128 37.5q-74 0 -131 -35t-88.5 -97t-31.5 -145t32.5 -145.5t89.5 -97t131 -34.5q62 0 113.5 25.5
t82.5 72t31 108.5v51l53 -48h-282v100h346v-70q0 -82 -28 -146.5t-76 -109.5t-110 -68t-130 -23zM344 844v125h125v-125h-125z" />
    <glyph glyph-name="gdotaccent" unicode="&#x121;" horiz-adv-x="655" 
d="M327 -220q-59 0 -109 19t-86 52.5t-54 78.5l104 43q14 -38 51.5 -63t92.5 -25q43 0 77 16.5t54 48t20 75.5v122l20 -23q-28 -52 -77.5 -79t-111.5 -27q-75 0 -135 35t-94.5 96t-34.5 137q0 77 34.5 137t93.5 95t135 35q62 0 110.5 -26.5t79.5 -76.5l-15 -28v119h107v-516
q0 -70 -33.5 -125.5t-92.5 -87.5t-136 -32zM321 123q45 0 80 21.5t55.5 58t20.5 82.5t-21 83t-56 58.5t-79 21.5q-46 0 -82 -21.5t-56.5 -58t-20.5 -83.5q0 -45 20.5 -82t56.5 -58.5t82 -21.5zM265 640v125h125v-125h-125z" />
    <glyph glyph-name="uni0122" unicode="&#x122;" horiz-adv-x="813" 
d="M426 -12q-79 0 -146.5 29t-118 80.5t-78.5 121.5t-28 154q0 83 27.5 153.5t77.5 122t117 80t147 28.5q79 0 141.5 -27t105.5 -70.5t62 -94.5l-105 -51q-23 61 -76 98.5t-128 37.5q-74 0 -131 -35t-88.5 -97t-31.5 -145t32.5 -145.5t89.5 -97t131 -34.5q62 0 113.5 25.5
t82.5 72t31 108.5v51l53 -48h-282v100h346v-70q0 -82 -28 -146.5t-76 -109.5t-110 -68t-130 -23zM302 -251l34 181h142l-70 -181h-106z" />
    <glyph glyph-name="uni0123" unicode="&#x123;" horiz-adv-x="655" 
d="M327 -220q-59 0 -109 19t-86 52.5t-54 78.5l104 43q14 -38 51.5 -63t92.5 -25q43 0 77 16.5t54 48t20 75.5v122l20 -23q-28 -52 -77.5 -79t-111.5 -27q-75 0 -135 35t-94.5 96t-34.5 137q0 77 34.5 137t93.5 95t135 35q62 0 110.5 -26.5t79.5 -76.5l-15 -28v119h107v-516
q0 -70 -33.5 -125.5t-92.5 -87.5t-136 -32zM321 123q45 0 80 21.5t55.5 58t20.5 82.5t-21 83t-56 58.5t-79 21.5q-46 0 -82 -21.5t-56.5 -58t-20.5 -83.5q0 -45 20.5 -82t56.5 -58.5t82 -21.5zM245 611l70 182h106l-34 -182h-142z" />
    <glyph glyph-name="Hcircumflex" unicode="&#x124;" horiz-adv-x="734" 
d="M77 0v745h118v-328h345v328h117v-745h-117v312h-345v-312h-118zM183 844l118 160h132l119 -160h-116l-69 91l-68 -91h-116z" />
    <glyph glyph-name="hcircumflex" unicode="&#x125;" 
d="M66 0v757h113v-322l-18 14q20 51 64 77.5t102 26.5q60 0 106 -26t72 -72t26 -105v-350h-112v319q0 41 -15.5 69.5t-42.5 44t-62 15.5q-34 0 -61.5 -15.5t-43 -44.5t-15.5 -69v-319h-113zM-61 844l118 160h132l119 -160h-116l-69 91l-68 -91h-116z" />
    <glyph glyph-name="Hbar" unicode="&#x126;" horiz-adv-x="734" 
d="M-4 544v103h743v-103h-743zM77 0v745h118v-328h345v328h117v-745h-117v312h-345v-312h-118z" />
    <glyph glyph-name="hbar" unicode="&#x127;" 
d="M-22 595v90h290v-90h-290zM66 0v757h113v-322l-18 14q20 51 64 77.5t102 26.5q60 0 106 -26t72 -72t26 -105v-350h-112v319q0 41 -15.5 69.5t-42.5 44t-62 15.5q-34 0 -61.5 -15.5t-43 -44.5t-15.5 -69v-319h-113z" />
    <glyph glyph-name="Itilde" unicode="&#x128;" horiz-adv-x="272" 
d="M77 0v745h118v-745h-118zM205 844q-27 0 -44.5 9t-30 20t-25 20t-29.5 9t-26 -13t-9 -41h-89q0 74 33 109.5t82 35.5q28 0 45.5 -8.5t30.5 -20t25.5 -20t28.5 -8.5q19 0 27.5 14t8.5 39h88q0 -70 -33.5 -107.5t-82.5 -37.5z" />
    <glyph glyph-name="itilde" unicode="&#x129;" horiz-adv-x="219" 
d="M53 0v541h113v-541h-113zM178 640q-27 0 -44.5 9t-30 20t-25 20t-29.5 9t-26 -13t-9 -41h-89q0 74 33 109.5t82 35.5q28 0 45.5 -8.5t30.5 -20t25.5 -20t28.5 -8.5q19 0 27.5 14t8.5 39h88q0 -70 -33.5 -107.5t-82.5 -37.5z" />
    <glyph glyph-name="Imacron" unicode="&#x12a;" horiz-adv-x="272" 
d="M77 0v745h118v-745h-118zM-16 864v95h305v-95h-305z" />
    <glyph glyph-name="imacron" unicode="&#x12b;" horiz-adv-x="219" 
d="M53 0v541h113v-541h-113zM-43 660v95h305v-95h-305z" />
    <glyph glyph-name="Ibreve" unicode="&#x12c;" horiz-adv-x="272" 
d="M77 0v745h118v-745h-118zM137 847q-63 0 -104 22.5t-61.5 59t-21.5 78.5h110q1 -34 21 -53t56 -19t56 19t21 53h109q-1 -43 -21.5 -79.5t-61 -58.5t-103.5 -22z" />
    <glyph glyph-name="ibreve" unicode="&#x12d;" horiz-adv-x="219" 
d="M53 0v541h113v-541h-113zM110 643q-63 0 -104 22.5t-61.5 59t-21.5 78.5h110q1 -34 21 -53t56 -19t56 19t21 53h109q-1 -43 -21.5 -79.5t-61 -58.5t-103.5 -22z" />
    <glyph glyph-name="Iogonek" unicode="&#x12e;" horiz-adv-x="272" 
d="M77 0v745h118v-745h-118zM127 -235q-60 0 -96 32.5t-36 81.5q0 37 17.5 68.5t50 54t77.5 31.5h30v-33q-21 -4 -39 -19t-29 -37.5t-11 -49.5q0 -23 16 -37t37 -14q18 0 33.5 6.5t29.5 18.5l26 -68q-20 -16 -47 -25.5t-59 -9.5z" />
    <glyph glyph-name="iogonek" unicode="&#x12f;" horiz-adv-x="219" 
d="M53 0v541h113v-541h-113zM47 640v125h125v-125h-125zM102 -235q-60 0 -96 32.5t-36 81.5q0 37 17.5 68.5t50 54t77.5 31.5h30v-33q-21 -4 -39 -19t-29 -37.5t-11 -49.5q0 -23 16 -37t37 -14q18 0 33.5 6.5t29.5 18.5l26 -68q-20 -16 -47 -25.5t-59 -9.5z" />
    <glyph glyph-name="Idotaccent" unicode="&#x130;" horiz-adv-x="272" 
d="M77 0v745h118v-745h-118zM74 844v125h125v-125h-125z" />
    <glyph glyph-name="dotlessi" unicode="&#x131;" horiz-adv-x="219" 
d="M53 0v541h113v-541h-113z" />
    <glyph glyph-name="Jcircumflex" unicode="&#x134;" horiz-adv-x="390" 
d="M44 0v110h43q50 0 80 29.5t30 79.5v526h117v-522q0 -68 -27.5 -118t-79 -77.5t-120.5 -27.5h-43zM72 844l118 160h132l119 -160h-116l-69 91l-68 -91h-116z" />
    <glyph glyph-name="jcircumflex" unicode="&#x135;" horiz-adv-x="245" 
d="M-17 -221q-11 0 -24.5 1.5t-22.5 3.5v98q19 -3 38 -3q42 0 67 21.5t25 64.5v576h113v-576q0 -59 -25 -101t-69 -63.5t-102 -21.5zM-61 640l118 160h132l119 -160h-116l-69 91l-68 -91h-116z" />
    <glyph glyph-name="uni0136" unicode="&#x136;" horiz-adv-x="671" 
d="M77 0v745h118v-404l-31 12l337 392h147l-298 -349l6 84l304 -480h-139l-218 341l-108 -126v-215h-118zM231 -251l34 181h142l-70 -181h-106z" />
    <glyph glyph-name="uni0137" unicode="&#x137;" horiz-adv-x="567" 
d="M66 0v757h113v-507l-44 11l271 280h141l-204 -217l213 -324h-130l-190 287l67 9l-160 -170l36 75v-201h-113zM179 -251l34 181h142l-70 -181h-106z" />
    <glyph glyph-name="kgreenlandic" unicode="&#x138;" horiz-adv-x="567" 
d="M427 0l-167 237l4 93l138 211h128l-169 -260l195 -281h-129zM66 0v541h113v-541h-113zM135 233v102h194v-102h-194z" />
    <glyph glyph-name="Lacute" unicode="&#x139;" horiz-adv-x="539" 
d="M77 0v745h118v-640h322v-105h-440zM80 844l73 165h148l-109 -165h-112z" />
    <glyph glyph-name="lacute" unicode="&#x13a;" horiz-adv-x="245" 
d="M66 0v757h113v-757h-113zM67 844l73 165h148l-109 -165h-112z" />
    <glyph glyph-name="uni013B" unicode="&#x13b;" horiz-adv-x="539" 
d="M77 0v745h118v-640h322v-105h-440zM193 -251l34 181h142l-70 -181h-106z" />
    <glyph glyph-name="uni013C" unicode="&#x13c;" horiz-adv-x="245" 
d="M66 0v757h113v-757h-113zM18 -251l34 181h142l-70 -181h-106z" />
    <glyph glyph-name="Lcaron" unicode="&#x13d;" horiz-adv-x="539" 
d="M77 0v745h118v-640h322v-105h-440zM356 575v182h137l-36 -182h-101z" />
    <glyph glyph-name="lcaron" unicode="&#x13e;" horiz-adv-x="415" 
d="M66 0v757h113v-757h-113zM245 575v182h137l-36 -182h-101z" />
    <glyph glyph-name="Ldot" unicode="&#x13f;" horiz-adv-x="539" 
d="M357 305q-29 0 -48.5 19.5t-19.5 48.5q0 28 19.5 47.5t48.5 19.5q28 0 47.5 -19.5t19.5 -47.5q0 -29 -19.5 -48.5t-47.5 -19.5zM77 0v745h118v-640h322v-105h-440z" />
    <glyph glyph-name="ldot" unicode="&#x140;" horiz-adv-x="411" 
d="M310 305q-28 0 -48 19.5t-20 48.5q0 28 20 47.5t48 19.5t47.5 -19.5t19.5 -47.5q0 -29 -19.5 -48.5t-47.5 -19.5zM66 0v757h113v-757h-113z" />
    <glyph glyph-name="Lslash" unicode="&#x141;" horiz-adv-x="610" 
d="M39 217v113l337 200v-113zM148 0v745h118v-640h322v-105h-440z" />
    <glyph glyph-name="lslash" unicode="&#x142;" horiz-adv-x="351" 
d="M33 251v113l285 169v-113zM120 0v757h112v-757h-112z" />
    <glyph glyph-name="Nacute" unicode="&#x143;" horiz-adv-x="739" 
d="M77 0v745h95l418 -577l-45 -7v584h117v-745h-95l-415 581l43 8v-589h-118zM314 844l73 165h148l-109 -165h-112z" />
    <glyph glyph-name="nacute" unicode="&#x144;" 
d="M66 0v541h108v-106l-13 14q20 51 64 77.5t102 26.5q60 0 106 -26t72 -72t26 -106v-349h-112v319q0 41 -15 69.5t-42.5 44t-62.5 15.5t-62.5 -15.5t-42.5 -44.5t-15 -69v-319h-113zM238 640l73 165h148l-109 -165h-112z" />
    <glyph glyph-name="uni0145" unicode="&#x145;" horiz-adv-x="739" 
d="M77 0v745h95l418 -577l-45 -7v584h117v-745h-95l-415 581l43 8v-589h-118zM265 -251l34 181h142l-70 -181h-106z" />
    <glyph glyph-name="uni0146" unicode="&#x146;" 
d="M66 0v541h108v-106l-13 14q20 51 64 77.5t102 26.5q60 0 106 -26t72 -72t26 -106v-349h-112v319q0 41 -15 69.5t-42.5 44t-62.5 15.5t-62.5 -15.5t-42.5 -44.5t-15 -69v-319h-113zM189 -251l34 181h142l-70 -181h-106z" />
    <glyph glyph-name="Ncaron" unicode="&#x147;" horiz-adv-x="739" 
d="M77 0v745h95l418 -577l-45 -7v584h117v-745h-95l-415 581l43 8v-589h-118zM303 844l-118 160h116l68 -90l69 90h116l-119 -160h-132z" />
    <glyph glyph-name="ncaron" unicode="&#x148;" 
d="M66 0v541h108v-106l-13 14q20 51 64 77.5t102 26.5q60 0 106 -26t72 -72t26 -106v-349h-112v319q0 41 -15 69.5t-42.5 44t-62.5 15.5t-62.5 -15.5t-42.5 -44.5t-15 -69v-319h-113zM227 640l-118 160h116l68 -90l69 90h116l-119 -160h-132z" />
    <glyph glyph-name="Eng" unicode="&#x14a;" horiz-adv-x="739" 
d="M467 -221q-11 0 -24.5 1.5t-22.5 3.5v101q19 -3 38 -3q42 0 65.5 20t23.5 63v114l30 -94l-412 580l30 9v-574h-118v745h95l404 -557l-31 -10v567h117v-780q0 -59 -24.5 -101t-68.5 -63.5t-102 -21.5z" />
    <glyph glyph-name="eng" unicode="&#x14b;" horiz-adv-x="600" 
d="M327 -221q-11 0 -24.5 1.5t-22.5 3.5v98q19 -3 38 -3q42 0 67 21.5t25 64.5v354q0 41 -15 69.5t-42 44t-62 15.5t-62.5 -15.5t-43 -44.5t-15.5 -69v-319h-112v541h107v-106l-12 14q19 51 63 77.5t103 26.5t105 -26t72.5 -72t26.5 -105v-385q0 -59 -25 -101t-69 -63.5
t-102 -21.5z" />
    <glyph glyph-name="Omacron" unicode="&#x14c;" horiz-adv-x="878" 
d="M439 -12q-81 0 -150.5 29t-122 81t-82 122t-29.5 153t29.5 153.5t81.5 122t122 80t151 28.5q82 0 151.5 -28.5t122 -80.5t81.5 -122t29 -153t-29.5 -153t-81.5 -122t-122 -81t-151 -29zM439 96q58 0 106.5 21t84.5 58.5t56 88t20 109.5t-20 109t-56 88t-84.5 59
t-106.5 21t-106.5 -21t-84.5 -59t-55.5 -88t-19.5 -109t19.5 -109.5t55.5 -88t85 -58.5t106 -21zM287 864v95h305v-95h-305z" />
    <glyph glyph-name="omacron" unicode="&#x14d;" horiz-adv-x="653" 
d="M327 -12q-78 0 -142.5 37t-102.5 101t-38 145q0 82 38 145.5t102 100t143 36.5q80 0 143.5 -36.5t101 -100t37.5 -145.5t-38 -146t-102 -100.5t-142 -36.5zM327 93q48 0 85 23t58.5 63.5t21.5 91.5t-21.5 91t-58.5 63t-85 23q-47 0 -84.5 -23t-59 -63t-21.5 -91
t21.5 -91.5t59 -63.5t84.5 -23zM175 660v95h305v-95h-305z" />
    <glyph glyph-name="Obreve" unicode="&#x14e;" horiz-adv-x="878" 
d="M439 -12q-81 0 -150.5 29t-122 81t-82 122t-29.5 153t29.5 153.5t81.5 122t122 80t151 28.5q82 0 151.5 -28.5t122 -80.5t81.5 -122t29 -153t-29.5 -153t-81.5 -122t-122 -81t-151 -29zM439 96q58 0 106.5 21t84.5 58.5t56 88t20 109.5t-20 109t-56 88t-84.5 59
t-106.5 21t-106.5 -21t-84.5 -59t-55.5 -88t-19.5 -109t19.5 -109.5t55.5 -88t85 -58.5t106 -21zM440 847q-63 0 -104 22.5t-61.5 59t-21.5 78.5h110q1 -34 21 -53t56 -19t56 19t21 53h109q-1 -43 -21.5 -79.5t-61 -58.5t-103.5 -22z" />
    <glyph glyph-name="obreve" unicode="&#x14f;" horiz-adv-x="653" 
d="M327 -12q-78 0 -142.5 37t-102.5 101t-38 145q0 82 38 145.5t102 100t143 36.5q80 0 143.5 -36.5t101 -100t37.5 -145.5t-38 -146t-102 -100.5t-142 -36.5zM327 93q48 0 85 23t58.5 63.5t21.5 91.5t-21.5 91t-58.5 63t-85 23q-47 0 -84.5 -23t-59 -63t-21.5 -91
t21.5 -91.5t59 -63.5t84.5 -23zM328 643q-63 0 -104 22.5t-61.5 59t-21.5 78.5h110q1 -34 21 -53t56 -19t56 19t21 53h109q-1 -43 -21.5 -79.5t-61 -58.5t-103.5 -22z" />
    <glyph glyph-name="Ohungarumlaut" unicode="&#x150;" horiz-adv-x="878" 
d="M439 -12q-81 0 -150.5 29t-122 81t-82 122t-29.5 153t29.5 153.5t81.5 122t122 80t151 28.5q82 0 151.5 -28.5t122 -80.5t81.5 -122t29 -153t-29.5 -153t-81.5 -122t-122 -81t-151 -29zM439 96q58 0 106.5 21t84.5 58.5t56 88t20 109.5t-20 109t-56 88t-84.5 59
t-106.5 21t-106.5 -21t-84.5 -59t-55.5 -88t-19.5 -109t19.5 -109.5t55.5 -88t85 -58.5t106 -21zM285 844l48 165h143l-84 -165h-107zM486 844l48 165h143l-84 -165h-107z" />
    <glyph glyph-name="ohungarumlaut" unicode="&#x151;" horiz-adv-x="653" 
d="M327 -12q-78 0 -142.5 37t-102.5 101t-38 145q0 82 38 145.5t102 100t143 36.5q80 0 143.5 -36.5t101 -100t37.5 -145.5t-38 -146t-102 -100.5t-142 -36.5zM327 93q48 0 85 23t58.5 63.5t21.5 91.5t-21.5 91t-58.5 63t-85 23q-47 0 -84.5 -23t-59 -63t-21.5 -91
t21.5 -91.5t59 -63.5t84.5 -23zM173 640l48 165h143l-84 -165h-107zM374 640l48 165h143l-84 -165h-107z" />
    <glyph glyph-name="OE" unicode="&#x152;" horiz-adv-x="1234" 
d="M439 -12q-81 0 -150.5 29t-122 81t-82 122t-29.5 153t29.5 153.5t81.5 122t122 80t151 28.5q60 0 114.5 -16.5t100.5 -48t80 -76.5l-23 -23v152h490v-105h-373v-214h353v-105h-353v-216h373v-105h-490v153l23 -22q-34 -45 -80 -77t-100.5 -49t-114.5 -17zM439 96
q58 0 106.5 21t84.5 58.5t56 88t20 109.5t-20 109t-56 88t-84.5 59t-106.5 21t-106.5 -21t-84.5 -59t-55.5 -88t-19.5 -109t19.5 -109.5t55.5 -88t85 -58.5t106 -21z" />
    <glyph glyph-name="oe" unicode="&#x153;" horiz-adv-x="1065" 
d="M327 -12q-78 0 -142.5 37t-102.5 101t-38 145q0 82 38 145.5t102 100t143 36.5q53 0 99.5 -17t83.5 -47.5t60 -72.5l-38 -1q23 43 57.5 74t79 47.5t94.5 16.5q61 0 109 -21t81 -57.5t50.5 -83.5t17.5 -100q0 -13 -1 -27t-4 -26h-402q3 -45 24.5 -79t56.5 -52.5t78 -18.5
q49 0 83.5 22t54.5 57l92 -45q-16 -38 -49.5 -68.5t-80 -48t-101.5 -17.5q-80 0 -142.5 38t-96.5 101h38q-24 -42 -61.5 -73.5t-83.5 -48.5t-99 -17zM327 93q48 0 85 23t58.5 63.5t21.5 91.5t-21.5 91t-58.5 63t-85 23q-47 0 -84.5 -23t-59 -63t-21.5 -91t21.5 -91.5
t59 -63.5t84.5 -23zM616 328h285q-1 39 -19.5 68t-49.5 45.5t-69 16.5q-36 0 -67.5 -15.5t-52 -44.5t-27.5 -70z" />
    <glyph glyph-name="Racute" unicode="&#x154;" horiz-adv-x="654" 
d="M77 0v745h271q75 0 132 -27.5t89.5 -80t32.5 -125.5q0 -77 -38.5 -132t-103.5 -80l172 -300h-134l-183 325l77 -45h-197v-280h-118zM195 385h155q41 0 71 16t46.5 44.5t16.5 67.5t-16.5 67.5t-46.5 44t-71 15.5h-155v-255zM269 844l73 165h148l-109 -165h-112z" />
    <glyph glyph-name="racute" unicode="&#x155;" horiz-adv-x="362" 
d="M66 0v541h108v-109l-10 16q18 53 58 76.5t96 23.5h33v-103h-47q-56 0 -90.5 -34.5t-34.5 -98.5v-312h-113zM153 640l73 165h148l-109 -165h-112z" />
    <glyph glyph-name="uni0156" unicode="&#x156;" horiz-adv-x="654" 
d="M77 0v745h271q75 0 132 -27.5t89.5 -80t32.5 -125.5q0 -77 -38.5 -132t-103.5 -80l172 -300h-134l-183 325l77 -45h-197v-280h-118zM195 385h155q41 0 71 16t46.5 44.5t16.5 67.5t-16.5 67.5t-46.5 44t-71 15.5h-155v-255zM220 -251l34 181h142l-70 -181h-106z" />
    <glyph glyph-name="uni0157" unicode="&#x157;" horiz-adv-x="362" 
d="M66 0v541h108v-109l-10 16q18 53 58 76.5t96 23.5h33v-103h-47q-56 0 -90.5 -34.5t-34.5 -98.5v-312h-113zM18 -251l34 181h142l-70 -181h-106z" />
    <glyph glyph-name="Rcaron" unicode="&#x158;" horiz-adv-x="654" 
d="M77 0v745h271q75 0 132 -27.5t89.5 -80t32.5 -125.5q0 -77 -38.5 -132t-103.5 -80l172 -300h-134l-183 325l77 -45h-197v-280h-118zM195 385h155q41 0 71 16t46.5 44.5t16.5 67.5t-16.5 67.5t-46.5 44t-71 15.5h-155v-255zM258 844l-118 160h116l68 -90l69 90h116
l-119 -160h-132z" />
    <glyph glyph-name="rcaron" unicode="&#x159;" horiz-adv-x="362" 
d="M66 0v541h108v-109l-10 16q18 53 58 76.5t96 23.5h33v-103h-47q-56 0 -90.5 -34.5t-34.5 -98.5v-312h-113zM142 640l-118 160h116l68 -90l69 90h116l-119 -160h-132z" />
    <glyph glyph-name="Sacute" unicode="&#x15a;" horiz-adv-x="647" 
d="M338 -12q-70 0 -130 26.5t-102 72.5t-62 106l100 42q27 -69 79 -106t120 -37q40 0 70 12.5t46.5 35.5t16.5 53q0 41 -23 65t-68 38l-140 44q-84 26 -128 79.5t-44 125.5q0 63 31 110.5t85.5 74.5t124.5 27q67 0 122 -23.5t94.5 -64.5t57.5 -95l-98 -43q-22 59 -68.5 91
t-107.5 32q-37 0 -65 -12.5t-43.5 -36t-15.5 -54.5q0 -36 23 -64t70 -42l130 -41q89 -27 134 -77.5t45 -125.5q0 -62 -32.5 -110t-89.5 -75.5t-132 -27.5zM265 844l73 165h148l-109 -165h-112z" />
    <glyph glyph-name="sacute" unicode="&#x15b;" horiz-adv-x="512" 
d="M266 -12q-83 0 -145.5 41t-87.5 110l87 41q22 -46 60.5 -73t85.5 -27q40 0 65 18t25 49q0 20 -11 32.5t-27.5 20.5t-33.5 12l-85 24q-70 20 -104.5 60.5t-34.5 94.5q0 49 25 85.5t69 56.5t99 20q74 0 132 -36.5t82 -101.5l-87 -41q-16 39 -50.5 62t-77.5 23
q-37 0 -59 -17.5t-22 -45.5q0 -19 10 -31.5t26 -20t33 -12.5l88 -26q67 -19 103 -59.5t36 -96.5q0 -48 -25.5 -84.5t-70.5 -57t-105 -20.5zM201 640l73 165h148l-109 -165h-112z" />
    <glyph glyph-name="Scircumflex" unicode="&#x15c;" horiz-adv-x="647" 
d="M338 -12q-70 0 -130 26.5t-102 72.5t-62 106l100 42q27 -69 79 -106t120 -37q40 0 70 12.5t46.5 35.5t16.5 53q0 41 -23 65t-68 38l-140 44q-84 26 -128 79.5t-44 125.5q0 63 31 110.5t85.5 74.5t124.5 27q67 0 122 -23.5t94.5 -64.5t57.5 -95l-98 -43q-22 59 -68.5 91
t-107.5 32q-37 0 -65 -12.5t-43.5 -36t-15.5 -54.5q0 -36 23 -64t70 -42l130 -41q89 -27 134 -77.5t45 -125.5q0 -62 -32.5 -110t-89.5 -75.5t-132 -27.5zM137 844l118 160h132l119 -160h-116l-69 91l-68 -91h-116z" />
    <glyph glyph-name="scircumflex" unicode="&#x15d;" horiz-adv-x="512" 
d="M266 -12q-83 0 -145.5 41t-87.5 110l87 41q22 -46 60.5 -73t85.5 -27q40 0 65 18t25 49q0 20 -11 32.5t-27.5 20.5t-33.5 12l-85 24q-70 20 -104.5 60.5t-34.5 94.5q0 49 25 85.5t69 56.5t99 20q74 0 132 -36.5t82 -101.5l-87 -41q-16 39 -50.5 62t-77.5 23
q-37 0 -59 -17.5t-22 -45.5q0 -19 10 -31.5t26 -20t33 -12.5l88 -26q67 -19 103 -59.5t36 -96.5q0 -48 -25.5 -84.5t-70.5 -57t-105 -20.5zM73 640l118 160h132l119 -160h-116l-69 91l-68 -91h-116z" />
    <glyph glyph-name="Scedilla" unicode="&#x15e;" horiz-adv-x="647" 
d="M338 -12q-70 0 -130 26.5t-102 72.5t-62 106l100 42q27 -69 79 -106t120 -37q40 0 70 12.5t46.5 35.5t16.5 53q0 41 -23 65t-68 38l-140 44q-84 26 -128 79.5t-44 125.5q0 63 31 110.5t85.5 74.5t124.5 27q67 0 122 -23.5t94.5 -64.5t57.5 -95l-98 -43q-22 59 -68.5 91
t-107.5 32q-37 0 -65 -12.5t-43.5 -36t-15.5 -54.5q0 -36 23 -64t70 -42l130 -41q89 -27 134 -77.5t45 -125.5q0 -62 -32.5 -110t-89.5 -75.5t-132 -27.5zM350 -235q-28 0 -59 9t-52 26l26 68q15 -12 33.5 -18.5t36.5 -6.5q22 0 34.5 10t12.5 27q0 20 -23.5 32t-72.5 17
l22 81h70l-11 -43q53 -8 81.5 -33t28.5 -63q0 -47 -35 -76.5t-92 -29.5z" />
    <glyph glyph-name="scedilla" unicode="&#x15f;" horiz-adv-x="512" 
d="M266 -12q-83 0 -145.5 41t-87.5 110l87 41q22 -46 60.5 -73t85.5 -27q40 0 65 18t25 49q0 20 -11 32.5t-27.5 20.5t-33.5 12l-85 24q-70 20 -104.5 60.5t-34.5 94.5q0 49 25 85.5t69 56.5t99 20q74 0 132 -36.5t82 -101.5l-87 -41q-16 39 -50.5 62t-77.5 23
q-37 0 -59 -17.5t-22 -45.5q0 -19 10 -31.5t26 -20t33 -12.5l88 -26q67 -19 103 -59.5t36 -96.5q0 -48 -25.5 -84.5t-70.5 -57t-105 -20.5zM268 -235q-28 0 -59 9t-52 26l26 68q15 -12 33.5 -18.5t36.5 -6.5q22 0 34.5 10t12.5 27q0 20 -23.5 32t-72.5 17l22 81h70l-11 -43
q53 -8 81.5 -33t28.5 -63q0 -47 -35 -76.5t-92 -29.5z" />
    <glyph glyph-name="Scaron" unicode="&#x160;" horiz-adv-x="647" 
d="M338 -12q-70 0 -130 26.5t-102 72.5t-62 106l100 42q27 -69 79 -106t120 -37q40 0 70 12.5t46.5 35.5t16.5 53q0 41 -23 65t-68 38l-140 44q-84 26 -128 79.5t-44 125.5q0 63 31 110.5t85.5 74.5t124.5 27q67 0 122 -23.5t94.5 -64.5t57.5 -95l-98 -43q-22 59 -68.5 91
t-107.5 32q-37 0 -65 -12.5t-43.5 -36t-15.5 -54.5q0 -36 23 -64t70 -42l130 -41q89 -27 134 -77.5t45 -125.5q0 -62 -32.5 -110t-89.5 -75.5t-132 -27.5zM254 844l-118 160h116l68 -90l69 90h116l-119 -160h-132z" />
    <glyph glyph-name="scaron" unicode="&#x161;" horiz-adv-x="512" 
d="M266 -12q-83 0 -145.5 41t-87.5 110l87 41q22 -46 60.5 -73t85.5 -27q40 0 65 18t25 49q0 20 -11 32.5t-27.5 20.5t-33.5 12l-85 24q-70 20 -104.5 60.5t-34.5 94.5q0 49 25 85.5t69 56.5t99 20q74 0 132 -36.5t82 -101.5l-87 -41q-16 39 -50.5 62t-77.5 23
q-37 0 -59 -17.5t-22 -45.5q0 -19 10 -31.5t26 -20t33 -12.5l88 -26q67 -19 103 -59.5t36 -96.5q0 -48 -25.5 -84.5t-70.5 -57t-105 -20.5zM190 640l-118 160h116l68 -90l69 90h116l-119 -160h-132z" />
    <glyph glyph-name="uni0162" unicode="&#x162;" horiz-adv-x="532" 
d="M209 0v640h-198v105h510v-105h-195v-640h-117zM278 -235q-28 0 -59 9t-52 26l26 68q15 -12 33.5 -18.5t36.5 -6.5q22 0 34.5 10t12.5 27q0 20 -23.5 32t-72.5 17l22 81h70l-11 -43q53 -8 81.5 -33t28.5 -63q0 -47 -35 -76.5t-92 -29.5z" />
    <glyph glyph-name="uni0163" unicode="&#x163;" horiz-adv-x="405" 
d="M300 -6q-85 0 -132 48t-47 135v262h-95v102h15q38 0 59 22t21 60v42h113v-124h123v-102h-123v-257q0 -28 9 -47.5t29 -30t52 -10.5q8 0 18 1t19 2v-97q-14 -2 -31 -4t-30 -2zM304 -235q-28 0 -59 9t-52 26l26 68q15 -12 33.5 -18.5t36.5 -6.5q22 0 34.5 10t12.5 27
q0 20 -23.5 32t-72.5 17l22 81h70l-11 -43q53 -8 81.5 -33t28.5 -63q0 -47 -35 -76.5t-92 -29.5z" />
    <glyph glyph-name="Tcaron" unicode="&#x164;" horiz-adv-x="532" 
d="M209 0v640h-198v105h510v-105h-195v-640h-117zM200 844l-118 160h116l68 -90l69 90h116l-119 -160h-132z" />
    <glyph glyph-name="tcaron" unicode="&#x165;" horiz-adv-x="454" 
d="M300 -6q-85 0 -132 48t-47 135v262h-95v102h15q38 0 59 22t21 60v42h113v-124h123v-102h-123v-257q0 -28 9 -47.5t29 -30t52 -10.5q8 0 18 1t19 2v-97q-14 -2 -31 -4t-30 -2zM295 575v182h137l-36 -182h-101z" />
    <glyph glyph-name="Tbar" unicode="&#x166;" horiz-adv-x="532" 
d="M100 323v100h333v-100h-333zM209 0v640h-198v105h510v-105h-195v-640h-117z" />
    <glyph glyph-name="tbar" unicode="&#x167;" horiz-adv-x="405" 
d="M300 -6q-85 0 -132 48t-47 135v262h-95v102h15q38 0 59 22t21 60v42h113v-124h123v-102h-123v-257q0 -28 9 -47.5t29 -30t52 -10.5q8 0 18 1t19 2v-97q-14 -2 -31 -4t-30 -2zM12 220v102h331v-102h-331z" />
    <glyph glyph-name="Utilde" unicode="&#x168;" horiz-adv-x="712" 
d="M356 -12q-83 0 -147.5 35t-101 96t-36.5 139v487h118v-482q0 -49 21.5 -87t59 -59t86.5 -21q50 0 87.5 21t59 59t21.5 87v482h117v-487q0 -78 -36 -139t-100.5 -96t-148.5 -35zM425 844q-27 0 -44.5 9t-30 20t-25 20t-29.5 9t-26 -13t-9 -41h-89q0 74 33 109.5t82 35.5
q28 0 45.5 -8.5t30.5 -20t25.5 -20t28.5 -8.5q19 0 27.5 14t8.5 39h88q0 -70 -33.5 -107.5t-82.5 -37.5z" />
    <glyph glyph-name="utilde" unicode="&#x169;" 
d="M259 -12q-61 0 -107 27.5t-71.5 77t-25.5 114.5v334h113v-324q0 -37 15 -65t42 -43.5t62 -15.5q36 0 63 16t42.5 45t15.5 68v319h112v-541h-107v106l12 -14q-19 -50 -63 -77t-103 -27zM362 640q-27 0 -44.5 9t-30 20t-25 20t-29.5 9t-26 -13t-9 -41h-89q0 74 33 109.5
t82 35.5q28 0 45.5 -8.5t30.5 -20t25.5 -20t28.5 -8.5q19 0 27.5 14t8.5 39h88q0 -70 -33.5 -107.5t-82.5 -37.5z" />
    <glyph glyph-name="Umacron" unicode="&#x16a;" horiz-adv-x="712" 
d="M356 -12q-83 0 -147.5 35t-101 96t-36.5 139v487h118v-482q0 -49 21.5 -87t59 -59t86.5 -21q50 0 87.5 21t59 59t21.5 87v482h117v-487q0 -78 -36 -139t-100.5 -96t-148.5 -35zM204 864v95h305v-95h-305z" />
    <glyph glyph-name="umacron" unicode="&#x16b;" 
d="M259 -12q-61 0 -107 27.5t-71.5 77t-25.5 114.5v334h113v-324q0 -37 15 -65t42 -43.5t62 -15.5q36 0 63 16t42.5 45t15.5 68v319h112v-541h-107v106l12 -14q-19 -50 -63 -77t-103 -27zM141 660v95h305v-95h-305z" />
    <glyph glyph-name="Ubreve" unicode="&#x16c;" horiz-adv-x="712" 
d="M356 -12q-83 0 -147.5 35t-101 96t-36.5 139v487h118v-482q0 -49 21.5 -87t59 -59t86.5 -21q50 0 87.5 21t59 59t21.5 87v482h117v-487q0 -78 -36 -139t-100.5 -96t-148.5 -35zM357 847q-63 0 -104 22.5t-61.5 59t-21.5 78.5h110q1 -34 21 -53t56 -19t56 19t21 53h109
q-1 -43 -21.5 -79.5t-61 -58.5t-103.5 -22z" />
    <glyph glyph-name="ubreve" unicode="&#x16d;" 
d="M259 -12q-61 0 -107 27.5t-71.5 77t-25.5 114.5v334h113v-324q0 -37 15 -65t42 -43.5t62 -15.5q36 0 63 16t42.5 45t15.5 68v319h112v-541h-107v106l12 -14q-19 -50 -63 -77t-103 -27zM294 643q-63 0 -104 22.5t-61.5 59t-21.5 78.5h110q1 -34 21 -53t56 -19t56 19t21 53
h109q-1 -43 -21.5 -79.5t-61 -58.5t-103.5 -22z" />
    <glyph glyph-name="Uring" unicode="&#x16e;" horiz-adv-x="712" 
d="M356 -12q-83 0 -147.5 35t-101 96t-36.5 139v487h118v-482q0 -49 21.5 -87t59 -59t86.5 -21q50 0 87.5 21t59 59t21.5 87v482h117v-487q0 -78 -36 -139t-100.5 -96t-148.5 -35zM356 809q-50 0 -85 32t-35 85q0 52 35 84t85 32t85 -32t35 -84t-35 -84.5t-85 -32.5z
M356 880q20 0 32.5 12.5t12.5 33.5q0 20 -12.5 33t-32.5 13q-19 0 -32 -12.5t-13 -33.5t13 -33.5t32 -12.5z" />
    <glyph glyph-name="uring" unicode="&#x16f;" 
d="M259 -12q-61 0 -107 27.5t-71.5 77t-25.5 114.5v334h113v-324q0 -37 15 -65t42 -43.5t62 -15.5q36 0 63 16t42.5 45t15.5 68v319h112v-541h-107v106l12 -14q-19 -50 -63 -77t-103 -27zM294 605q-50 0 -85 32t-35 85q0 52 35 84t85 32t85 -32t35 -84t-35 -84.5t-85 -32.5z
M294 676q20 0 32.5 12.5t12.5 33.5q0 20 -12.5 33t-32.5 13q-19 0 -32 -12.5t-13 -33.5t13 -33.5t32 -12.5z" />
    <glyph glyph-name="Uhungarumlaut" unicode="&#x170;" horiz-adv-x="712" 
d="M356 -12q-83 0 -147.5 35t-101 96t-36.5 139v487h118v-482q0 -49 21.5 -87t59 -59t86.5 -21q50 0 87.5 21t59 59t21.5 87v482h117v-487q0 -78 -36 -139t-100.5 -96t-148.5 -35zM202 844l48 165h143l-84 -165h-107zM403 844l48 165h143l-84 -165h-107z" />
    <glyph glyph-name="uhungarumlaut" unicode="&#x171;" 
d="M259 -12q-61 0 -107 27.5t-71.5 77t-25.5 114.5v334h113v-324q0 -37 15 -65t42 -43.5t62 -15.5q36 0 63 16t42.5 45t15.5 68v319h112v-541h-107v106l12 -14q-19 -50 -63 -77t-103 -27zM140 640l48 165h143l-84 -165h-107zM341 640l48 165h143l-84 -165h-107z" />
    <glyph glyph-name="Uogonek" unicode="&#x172;" horiz-adv-x="712" 
d="M356 -12q-83 0 -147.5 35t-101 96t-36.5 139v487h118v-482q0 -49 21.5 -87t59 -59t86.5 -21q50 0 87.5 21t59 59t21.5 87v482h117v-487q0 -78 -36 -139t-100.5 -96t-148.5 -35zM348 -235q-60 0 -96 32.5t-36 81.5q0 37 17.5 68.5t50 54t77.5 31.5h30v-33q-21 -4 -39 -19
t-29 -37.5t-11 -49.5q0 -23 16 -37t37 -14q18 0 33.5 6.5t29.5 18.5l26 -68q-20 -16 -47 -25.5t-59 -9.5z" />
    <glyph glyph-name="uogonek" unicode="&#x173;" 
d="M259 -12q-61 0 -107 27.5t-71.5 77t-25.5 114.5v334h113v-324q0 -37 15 -65t42 -43.5t62 -15.5q36 0 63 16t42.5 45t15.5 68v319h112v-541h-107v106l12 -14q-19 -50 -63 -77t-103 -27zM464 -235q-60 0 -96 32.5t-36 81.5q0 37 17.5 68.5t50 54t77.5 31.5h30v-33
q-21 -4 -39 -19t-29 -37.5t-11 -49.5q0 -23 16 -37t37 -14q18 0 33.5 6.5t29.5 18.5l26 -68q-20 -16 -47 -25.5t-59 -9.5z" />
    <glyph glyph-name="Wcircumflex" unicode="&#x174;" horiz-adv-x="1008" 
d="M216 0l-205 745h125l166 -645h-31l172 645h123l172 -645h-32l167 645h124l-204 -745h-133l-173 635h35l-174 -635h-132zM320 844l118 160h132l119 -160h-116l-69 91l-68 -91h-116z" />
    <glyph glyph-name="wcircumflex" unicode="&#x175;" horiz-adv-x="855" 
d="M197 0l-186 541h120l142 -431h-42l145 431h103l144 -431h-42l143 431h120l-187 -541h-102l-146 441h37l-146 -441h-103zM244 640l118 160h132l119 -160h-116l-69 91l-68 -91h-116z" />
    <glyph glyph-name="Ycircumflex" unicode="&#x176;" horiz-adv-x="648" 
d="M266 0v336l-255 409h133l204 -331h-47l203 331h133l-254 -409v-336h-117zM140 844l118 160h132l119 -160h-116l-69 91l-68 -91h-116z" />
    <glyph glyph-name="ycircumflex" unicode="&#x177;" horiz-adv-x="569" 
d="M114 -221q-20 0 -39.5 3.5t-35.5 10.5v97q12 -3 29 -5.5t33 -2.5q47 0 69.5 20.5t40.5 63.5l36 82l-2 -95l-234 588h121l173 -451h-41l172 451h122l-239 -600q-19 -48 -47.5 -84.5t-67 -57t-90.5 -20.5zM101 640l118 160h132l119 -160h-116l-69 91l-68 -91h-116z" />
    <glyph glyph-name="Ydieresis" unicode="&#x178;" horiz-adv-x="648" 
d="M266 0v336l-255 409h133l204 -331h-47l203 331h133l-254 -409v-336h-117zM159 844v125h125v-125h-125zM364 844v125h125v-125h-125z" />
    <glyph glyph-name="Zacute" unicode="&#x179;" horiz-adv-x="576" 
d="M17 0v90l382 550h-360v105h511v-89l-382 -551h391v-105h-542zM232 844l73 165h148l-109 -165h-112z" />
    <glyph glyph-name="zacute" unicode="&#x17a;" horiz-adv-x="471" 
d="M17 0v93l318 385l18 -39h-321v102h421v-92l-314 -386l-18 40h333v-103h-437zM180 640l73 165h148l-109 -165h-112z" />
    <glyph glyph-name="Zdotaccent" unicode="&#x17b;" horiz-adv-x="576" 
d="M17 0v90l382 550h-360v105h511v-89l-382 -551h391v-105h-542zM226 844v125h125v-125h-125z" />
    <glyph glyph-name="zdotaccent" unicode="&#x17c;" horiz-adv-x="471" 
d="M17 0v93l318 385l18 -39h-321v102h421v-92l-314 -386l-18 40h333v-103h-437zM173 640v125h125v-125h-125z" />
    <glyph glyph-name="Zcaron" unicode="&#x17d;" horiz-adv-x="576" 
d="M17 0v90l382 550h-360v105h511v-89l-382 -551h391v-105h-542zM222 844l-118 160h116l68 -90l69 90h116l-119 -160h-132z" />
    <glyph glyph-name="zcaron" unicode="&#x17e;" horiz-adv-x="471" 
d="M17 0v93l318 385l18 -39h-321v102h421v-92l-314 -386l-18 40h333v-103h-437zM169 640l-118 160h116l68 -90l69 90h116l-119 -160h-132z" />
    <glyph glyph-name="uni018F" unicode="&#x18f;" horiz-adv-x="820" 
d="M403 -12q-76 0 -139.5 26.5t-110 74t-72.5 112.5t-26 142q0 18 1.5 34t5.5 32h609v-98h-538l52 37q-1 -9 -1.5 -17t-0.5 -17q0 -62 29 -111.5t79.5 -78t116.5 -28.5q52 0 97 19t77.5 55.5t49.5 87.5t15 115q2 59 -16 109.5t-53 88t-83 58.5t-106 21q-70 0 -125.5 -31.5
t-85.5 -86.5l-99 48q25 54 71 93.5t108 61.5t132 22q82 0 150.5 -29.5t119 -82t78 -123t27.5 -152.5q0 -80 -26 -149t-74 -121.5t-114.5 -82t-147.5 -29.5z" />
    <glyph glyph-name="florin" unicode="&#x192;" horiz-adv-x="542" 
d="M131 -12q-12 0 -25.5 1.5t-23.5 3.5v98q9 -1 19 -2t16 -1q45 0 71.5 23t26.5 80v133h-124v98h124v138q0 66 25.5 109.5t70.5 65.5t101 22q12 0 26 -1.5t23 -3.5v-98q-9 2 -18.5 2.5t-16.5 0.5q-45 0 -71.5 -22.5t-26.5 -80.5v-132h124v-98h-124v-138q0 -66 -25.5 -110
t-70 -66t-101.5 -22z" />
    <glyph glyph-name="Ohorn" unicode="&#x1a0;" horiz-adv-x="878" 
d="M439 -12q-81 0 -150.5 29t-122 81t-82 122t-29.5 153t29.5 153.5t81.5 122t122 80t151 28.5h207q9 0 20 2.5t19.5 13.5t8.5 35q0 18 -6 38t-15 40h109q10 -20 17 -41t7 -48q0 -66 -29.5 -94.5t-77.5 -28.5h-63l23 18q50 -33 87 -82t57 -108.5t20 -128.5q0 -83 -29.5 -153
t-81.5 -122t-122 -81t-151 -29zM439 96q58 0 106.5 21t84.5 58.5t56 88t20 109.5t-20 109t-56 88t-84.5 59t-106.5 21t-106.5 -21t-84.5 -59t-55.5 -88t-19.5 -109t19.5 -109.5t55.5 -88t85 -58.5t106 -21z" />
    <glyph glyph-name="ohorn" unicode="&#x1a1;" horiz-adv-x="653" 
d="M327 -12q-78 0 -142.5 37t-102.5 101t-38 145q0 82 38 145.5t102 100t143 36.5h109q9 0 20.5 3t20 14t8.5 34q0 19 -6.5 39t-14.5 39h100q9 -20 16 -41t7 -47q0 -53 -27.5 -82.5t-72.5 -37.5l7 27q53 -37 84 -96.5t31 -133.5q0 -82 -38 -146t-102 -100.5t-142 -36.5z
M327 93q48 0 85 23t58.5 63.5t21.5 91.5t-21.5 91t-58.5 63t-85 23q-47 0 -84.5 -23t-59 -63t-21.5 -91t21.5 -91.5t59 -63.5t84.5 -23z" />
    <glyph glyph-name="Uhorn" unicode="&#x1af;" horiz-adv-x="712" 
d="M356 -12q-83 0 -147.5 35t-101 96t-36.5 139v487h118v-482q0 -49 21.5 -87t59 -59t86.5 -21q50 0 87.5 21t59 59t21.5 87v482h104q14 0 29.5 8.5t15.5 42.5q0 18 -6 38t-15 40h109q10 -20 17 -41t7 -48q0 -66 -36.5 -97t-100.5 -31h-7v-399q0 -78 -36 -139t-100.5 -96
t-148.5 -35z" />
    <glyph glyph-name="uhorn" unicode="&#x1b0;" horiz-adv-x="638" 
d="M259 -12q-61 0 -107 27.5t-71.5 77t-25.5 114.5v334h113v-324q0 -37 15 -65t42 -43.5t62 -15.5q36 0 63 16t42.5 45t15.5 68v319h74q16 0 31 9.5t15 41.5q0 19 -6.5 39t-14.5 39h100q9 -20 16 -41t7 -47q0 -66 -40.5 -95t-104.5 -27l35 47v-507h-107v66q-23 -38 -63 -58
t-91 -20z" />
    <glyph glyph-name="uni01C4" unicode="&#x1c4;" horiz-adv-x="1316" 
d="M77 0v745h244q116 0 201.5 -46.5t132.5 -130.5t47 -195q0 -110 -47 -194.5t-132.5 -131.5t-201.5 -47h-244zM195 105h128q79 0 137.5 33t90.5 93t32 142t-32.5 141.5t-90.5 92.5t-137 33h-128v-535zM758 0v90l382 550h-360v105h511v-89l-382 -551h391v-105h-542zM962 844
l-118 160h116l68 -90l69 90h116l-119 -160h-132z" />
    <glyph glyph-name="uni01C5" unicode="&#x1c5;" horiz-adv-x="1211" 
d="M77 0v745h244q116 0 201.5 -46.5t132.5 -130.5t47 -195q0 -110 -47 -194.5t-132.5 -131.5t-201.5 -47h-244zM195 105h128q79 0 137.5 33t90.5 93t32 142t-32.5 141.5t-90.5 92.5t-137 33h-128v-535zM758 0v93l318 385l18 -39h-321v102h421v-92l-314 -386l-18 40h333v-103
h-437zM910 640l-118 160h116l68 -90l69 90h116l-119 -160h-132z" />
    <glyph glyph-name="uni01C6" unicode="&#x1c6;" horiz-adv-x="1141" 
d="M316 -12q-78 0 -139.5 37.5t-97 101.5t-35.5 144t36 144t97 101t138 37q65 0 115 -26t79 -72l-17 -26v328h112v-757h-107v110l13 -21q-28 -49 -80 -75t-114 -26zM327 93q47 0 84.5 23t59 63.5t21.5 91.5t-21.5 91t-59 63t-84.5 23t-85 -23t-59 -63t-21 -91t21 -91.5
t58.5 -63.5t85.5 -23zM687 0v93l318 385l18 -39h-321v102h421v-92l-314 -386l-18 40h333v-103h-437zM839 640l-118 160h116l68 -90l69 90h116l-119 -160h-132z" />
    <glyph glyph-name="uni01C7" unicode="&#x1c7;" horiz-adv-x="1141" 
d="M77 0v745h118v-640h322v-105h-440zM825 -12q-98 0 -165 51t-87 137l109 31q15 -53 53 -82t90 -29q39 0 66.5 15.5t42 43.5t14.5 65v525h117v-525q0 -66 -28.5 -118.5t-82.5 -83t-129 -30.5z" />
    <glyph glyph-name="uni01C8" unicode="&#x1c8;" horiz-adv-x="784" 
d="M77 0v745h118v-640h322v-105h-440zM522 -221q-11 0 -24.5 1.5t-22.5 3.5v98q19 -3 38 -3q42 0 67 21.5t25 64.5v576h113v-576q0 -59 -25 -101t-69 -63.5t-102 -21.5zM605 615v130h113v-130h-113z" />
    <glyph glyph-name="uni01C9" unicode="&#x1c9;" horiz-adv-x="489" 
d="M66 0v757h113v-757h-113zM228 -221q-11 0 -24.5 1.5t-22.5 3.5v98q19 -3 38 -3q42 0 67 21.5t25 64.5v576h113v-576q0 -59 -25 -101t-69 -63.5t-102 -21.5zM311 615v130h113v-130h-113z" />
    <glyph glyph-name="uni01CA" unicode="&#x1ca;" horiz-adv-x="1129" 
d="M77 0v745h95l418 -577l-45 -7v584h117v-745h-95l-415 581l43 8v-589h-118zM783 0v110h43q50 0 80 29.5t30 79.5v526h117v-522q0 -68 -27.5 -118t-79 -77.5t-120.5 -27.5h-43z" />
    <glyph glyph-name="uni01CB" unicode="&#x1cb;" horiz-adv-x="984" 
d="M77 0v745h95l418 -577l-45 -7v584h117v-745h-95l-415 581l43 8v-589h-118zM722 -221q-11 0 -24.5 1.5t-22.5 3.5v98q19 -3 38 -3q42 0 67 21.5t25 64.5v576h113v-576q0 -59 -25 -101t-69 -63.5t-102 -21.5zM805 615v130h113v-130h-113z" />
    <glyph glyph-name="uni01CC" unicode="&#x1cc;" horiz-adv-x="831" 
d="M66 0v541h108v-106l-13 14q20 51 64 77.5t102 26.5q60 0 106 -26t72 -72t26 -106v-349h-112v319q0 41 -15 69.5t-42.5 44t-62.5 15.5t-62.5 -15.5t-42.5 -44.5t-15 -69v-319h-113zM569 -221q-11 0 -24.5 1.5t-22.5 3.5v98q19 -3 38 -3q42 0 67 21.5t25 64.5v576h113v-576
q0 -59 -25 -101t-69 -63.5t-102 -21.5zM652 615v130h113v-130h-113z" />
    <glyph glyph-name="Gcaron" unicode="&#x1e6;" horiz-adv-x="813" 
d="M426 -12q-79 0 -146.5 29t-118 80.5t-78.5 121.5t-28 154q0 83 27.5 153.5t77.5 122t117 80t147 28.5q79 0 141.5 -27t105.5 -70.5t62 -94.5l-105 -51q-23 61 -76 98.5t-128 37.5q-74 0 -131 -35t-88.5 -97t-31.5 -145t32.5 -145.5t89.5 -97t131 -34.5q62 0 113.5 25.5
t82.5 72t31 108.5v51l53 -48h-282v100h346v-70q0 -82 -28 -146.5t-76 -109.5t-110 -68t-130 -23zM340 844l-118 160h116l68 -90l69 90h116l-119 -160h-132z" />
    <glyph glyph-name="gcaron" unicode="&#x1e7;" horiz-adv-x="655" 
d="M327 -220q-59 0 -109 19t-86 52.5t-54 78.5l104 43q14 -38 51.5 -63t92.5 -25q43 0 77 16.5t54 48t20 75.5v122l20 -23q-28 -52 -77.5 -79t-111.5 -27q-75 0 -135 35t-94.5 96t-34.5 137q0 77 34.5 137t93.5 95t135 35q62 0 110.5 -26.5t79.5 -76.5l-15 -28v119h107v-516
q0 -70 -33.5 -125.5t-92.5 -87.5t-136 -32zM321 123q45 0 80 21.5t55.5 58t20.5 82.5t-21 83t-56 58.5t-79 21.5q-46 0 -82 -21.5t-56.5 -58t-20.5 -83.5q0 -45 20.5 -82t56.5 -58.5t82 -21.5zM261 640l-118 160h116l68 -90l69 90h116l-119 -160h-132z" />
    <glyph glyph-name="uni01EA" unicode="&#x1ea;" horiz-adv-x="878" 
d="M439 -12q-81 0 -150.5 29t-122 81t-82 122t-29.5 153t29.5 153.5t81.5 122t122 80t151 28.5q82 0 151.5 -28.5t122 -80.5t81.5 -122t29 -153t-29.5 -153t-81.5 -122t-122 -81t-151 -29zM439 96q58 0 106.5 21t84.5 58.5t56 88t20 109.5t-20 109t-56 88t-84.5 59
t-106.5 21t-106.5 -21t-84.5 -59t-55.5 -88t-19.5 -109t19.5 -109.5t55.5 -88t85 -58.5t106 -21zM461 -235q-60 0 -96 32.5t-36 81.5q0 37 17.5 68.5t50 54t77.5 31.5h30v-33q-21 -4 -39 -19t-29 -37.5t-11 -49.5q0 -23 16 -37t37 -14q18 0 33.5 6.5t29.5 18.5l26 -68
q-20 -16 -47 -25.5t-59 -9.5z" />
    <glyph glyph-name="uni01EB" unicode="&#x1eb;" horiz-adv-x="653" 
d="M327 -12q-78 0 -142.5 37t-102.5 101t-38 145q0 82 38 145.5t102 100t143 36.5q80 0 143.5 -36.5t101 -100t37.5 -145.5t-38 -146t-102 -100.5t-142 -36.5zM327 93q48 0 85 23t58.5 63.5t21.5 91.5t-21.5 91t-58.5 63t-85 23q-47 0 -84.5 -23t-59 -63t-21.5 -91
t21.5 -91.5t59 -63.5t84.5 -23zM349 -235q-60 0 -96 32.5t-36 81.5q0 37 17.5 68.5t50 54t77.5 31.5h30v-33q-21 -4 -39 -19t-29 -37.5t-11 -49.5q0 -23 16 -37t37 -14q18 0 33.5 6.5t29.5 18.5l26 -68q-20 -16 -47 -25.5t-59 -9.5z" />
    <glyph glyph-name="Aringacute" unicode="&#x1fa;" horiz-adv-x="692" 
d="M11 0l262 745h146l262 -745h-126l-57 167h-303l-58 -167h-126zM229 272h233l-132 390h33zM346 809q-50 0 -85 32t-35 85q0 52 35 84t85 32t85 -32t35 -84t-35 -84.5t-85 -32.5zM346 880q20 0 32.5 12.5t12.5 33.5q0 20 -12.5 33t-32.5 13q-19 0 -32 -12.5t-13 -33.5
t13 -33.5t32 -12.5zM324 984l54 150h133l-83 -150h-104z" />
    <glyph glyph-name="aringacute" unicode="&#x1fb;" horiz-adv-x="578" 
d="M228 -12q-55 0 -96.5 19.5t-64.5 54t-23 81.5q0 44 19.5 79t60.5 59t103 34l188 31v-89l-166 -29q-45 -8 -66 -28.5t-21 -52.5q0 -31 23.5 -50.5t60.5 -19.5q46 0 80.5 20t53.5 53.5t19 74.5v139q0 40 -29.5 65.5t-78.5 25.5q-45 0 -78.5 -23.5t-49.5 -60.5l-94 47
q15 40 49 70.5t79.5 47.5t96.5 17q64 0 113.5 -24t77 -66.5t27.5 -98.5v-364h-108v98l23 -3q-19 -33 -48.5 -57t-67 -37t-83.5 -13zM295 605q-50 0 -85 32t-35 85q0 52 35 84t85 32t85 -32t35 -84t-35 -84.5t-85 -32.5zM295 676q20 0 32.5 12.5t12.5 33.5q0 20 -12.5 33
t-32.5 13q-19 0 -32 -12.5t-13 -33.5t13 -33.5t32 -12.5zM273 780l54 150h133l-83 -150h-104z" />
    <glyph glyph-name="AEacute" unicode="&#x1fc;" horiz-adv-x="989" 
d="M11 0l262 745h683v-105h-373v-214h353v-105h-353v-216h373v-105h-490v167h-271l-58 -167h-126zM229 272h237v368h-110zM439 844l73 165h148l-109 -165h-112z" />
    <glyph glyph-name="aeacute" unicode="&#x1fd;" horiz-adv-x="972" 
d="M228 -12q-55 0 -96.5 19.5t-64.5 54t-23 81.5q0 44 19.5 79t60.5 59t103 34l172 28v21q0 40 -29.5 65.5t-78.5 25.5q-45 0 -78.5 -23.5t-49.5 -60.5l-94 47q15 40 49 70.5t79.5 47.5t96.5 17q71 0 123.5 -30t76.5 -80h-38q35 51 90.5 80.5t123.5 29.5q61 0 109 -21
t81 -57.5t50.5 -83.5t17.5 -100q0 -13 -1 -27t-4 -26h-402q3 -45 24.5 -79t56.5 -52.5t78 -18.5q49 0 83.5 22t54.5 57l92 -45q-16 -38 -49 -68.5t-77.5 -48t-94.5 -17.5q-66 0 -119.5 26t-90.5 77l24 23v-114h-99v116l21 -25q-20 -32 -49 -55t-66 -35.5t-82 -12.5zM246 77
q46 0 80.5 20t53.5 53.5t19 74.5v29l-150 -26q-45 -8 -66 -28.5t-21 -52.5q0 -31 23.5 -50.5t60.5 -19.5zM523 328h285q-1 39 -19.5 68t-49.5 45.5t-69 16.5q-36 0 -67.5 -15.5t-52 -44.5t-27.5 -70zM431 640l73 165h148l-109 -165h-112z" />
    <glyph glyph-name="Oslashacute" unicode="&#x1fe;" horiz-adv-x="878" 
d="M66 0l610 745h136l-610 -745h-136zM439 -12q-81 0 -150.5 29t-122 81t-82 122t-29.5 153t29.5 153.5t81.5 122t122 80t151 28.5q82 0 151.5 -28.5t122 -80.5t81.5 -122t29 -153t-29.5 -153t-81.5 -122t-122 -81t-151 -29zM439 96q58 0 106.5 21t84.5 58.5t56 88t20 109.5
t-20 109t-56 88t-84.5 59t-106.5 21t-106.5 -21t-84.5 -59t-55.5 -88t-19.5 -109t19.5 -109.5t55.5 -88t85 -58.5t106 -21zM383 844l73 165h148l-109 -165h-112z" />
    <glyph glyph-name="oslashacute" unicode="&#x1ff;" horiz-adv-x="653" 
d="M25 0l469 541h135l-469 -541h-135zM327 -12q-78 0 -142.5 37t-102.5 101t-38 145q0 82 38 145.5t102 100t143 36.5q80 0 143.5 -36.5t101 -100t37.5 -145.5t-38 -146t-102 -100.5t-142 -36.5zM327 93q48 0 85 23t58.5 63.5t21.5 91.5t-21.5 91t-58.5 63t-85 23
q-47 0 -84.5 -23t-59 -63t-21.5 -91t21.5 -91.5t59 -63.5t84.5 -23zM271 640l73 165h148l-109 -165h-112z" />
    <glyph glyph-name="uni0200" unicode="&#x200;" horiz-adv-x="692" 
d="M11 0l262 745h146l262 -745h-126l-57 167h-303l-58 -167h-126zM229 272h233l-132 390h33zM192 844l-109 167h143l73 -167h-107zM393 844l-109 167h143l73 -167h-107z" />
    <glyph glyph-name="uni0201" unicode="&#x201;" horiz-adv-x="578" 
d="M228 -12q-55 0 -96.5 19.5t-64.5 54t-23 81.5q0 44 19.5 79t60.5 59t103 34l188 31v-89l-166 -29q-45 -8 -66 -28.5t-21 -52.5q0 -31 23.5 -50.5t60.5 -19.5q46 0 80.5 20t53.5 53.5t19 74.5v139q0 40 -29.5 65.5t-78.5 25.5q-45 0 -78.5 -23.5t-49.5 -60.5l-94 47
q15 40 49 70.5t79.5 47.5t96.5 17q64 0 113.5 -24t77 -66.5t27.5 -98.5v-364h-108v98l23 -3q-19 -33 -48.5 -57t-67 -37t-83.5 -13zM141 640l-109 167h143l73 -167h-107zM342 640l-109 167h143l73 -167h-107z" />
    <glyph glyph-name="uni0202" unicode="&#x202;" horiz-adv-x="692" 
d="M11 0l262 745h146l262 -745h-126l-57 167h-303l-58 -167h-126zM229 272h233l-132 390h33zM160 844q1 43 21.5 79.5t61.5 58.5t104 22t103.5 -21.5t61 -58t21.5 -80.5h-109q-1 35 -21 54t-56 19t-56 -19t-21 -54h-110z" />
    <glyph glyph-name="uni0203" unicode="&#x203;" horiz-adv-x="578" 
d="M228 -12q-55 0 -96.5 19.5t-64.5 54t-23 81.5q0 44 19.5 79t60.5 59t103 34l188 31v-89l-166 -29q-45 -8 -66 -28.5t-21 -52.5q0 -31 23.5 -50.5t60.5 -19.5q46 0 80.5 20t53.5 53.5t19 74.5v139q0 40 -29.5 65.5t-78.5 25.5q-45 0 -78.5 -23.5t-49.5 -60.5l-94 47
q15 40 49 70.5t79.5 47.5t96.5 17q64 0 113.5 -24t77 -66.5t27.5 -98.5v-364h-108v98l23 -3q-19 -33 -48.5 -57t-67 -37t-83.5 -13zM108 640q1 43 21.5 79.5t61.5 58.5t104 22t103.5 -21.5t61 -58t21.5 -80.5h-109q-1 35 -21 54t-56 19t-56 -19t-21 -54h-110z" />
    <glyph glyph-name="uni0204" unicode="&#x204;" horiz-adv-x="601" 
d="M77 0v745h491v-105h-373v-214h353v-105h-353v-216h373v-105h-491zM169 844l-109 167h143l73 -167h-107zM370 844l-109 167h143l73 -167h-107z" />
    <glyph glyph-name="uni0205" unicode="&#x205;" horiz-adv-x="613" 
d="M320 -12q-81 0 -143.5 37.5t-97.5 102t-35 144.5q0 82 35.5 145t95.5 99.5t136 36.5q61 0 109 -21t81 -57.5t50.5 -83.5t17.5 -100q0 -13 -1 -27t-4 -26h-431v90h367l-54 -41q10 49 -6.5 87.5t-50 61t-78.5 22.5t-80 -22.5t-54 -64t-15 -100.5q-5 -55 15.5 -96t58 -64
t85.5 -23q49 0 83.5 22t54.5 57l92 -45q-16 -38 -49.5 -68.5t-80 -48t-101.5 -17.5zM153 640l-109 167h143l73 -167h-107zM354 640l-109 167h143l73 -167h-107z" />
    <glyph glyph-name="uni0206" unicode="&#x206;" horiz-adv-x="601" 
d="M77 0v745h491v-105h-373v-214h353v-105h-353v-216h373v-105h-491zM136 844q1 43 21.5 79.5t61.5 58.5t104 22t103.5 -21.5t61 -58t21.5 -80.5h-109q-1 35 -21 54t-56 19t-56 -19t-21 -54h-110z" />
    <glyph glyph-name="uni0207" unicode="&#x207;" horiz-adv-x="613" 
d="M320 -12q-81 0 -143.5 37.5t-97.5 102t-35 144.5q0 82 35.5 145t95.5 99.5t136 36.5q61 0 109 -21t81 -57.5t50.5 -83.5t17.5 -100q0 -13 -1 -27t-4 -26h-431v90h367l-54 -41q10 49 -6.5 87.5t-50 61t-78.5 22.5t-80 -22.5t-54 -64t-15 -100.5q-5 -55 15.5 -96t58 -64
t85.5 -23q49 0 83.5 22t54.5 57l92 -45q-16 -38 -49.5 -68.5t-80 -48t-101.5 -17.5zM121 640q1 43 21.5 79.5t61.5 58.5t104 22t103.5 -21.5t61 -58t21.5 -80.5h-109q-1 35 -21 54t-56 19t-56 -19t-21 -54h-110z" />
    <glyph glyph-name="uni0208" unicode="&#x208;" horiz-adv-x="272" 
d="M77 0v745h118v-745h-118zM-18 844l-109 167h143l73 -167h-107zM183 844l-109 167h143l73 -167h-107z" />
    <glyph glyph-name="uni0209" unicode="&#x209;" horiz-adv-x="219" 
d="M53 0v541h113v-541h-113zM-45 640l-109 167h143l73 -167h-107zM156 640l-109 167h143l73 -167h-107z" />
    <glyph glyph-name="uni020A" unicode="&#x20a;" horiz-adv-x="272" 
d="M77 0v745h118v-745h-118zM-50 844q1 43 21.5 79.5t61.5 58.5t104 22t103.5 -21.5t61 -58t21.5 -80.5h-109q-1 35 -21 54t-56 19t-56 -19t-21 -54h-110z" />
    <glyph glyph-name="uni020B" unicode="&#x20b;" horiz-adv-x="219" 
d="M53 0v541h113v-541h-113zM-77 640q1 43 21.5 79.5t61.5 58.5t104 22t103.5 -21.5t61 -58t21.5 -80.5h-109q-1 35 -21 54t-56 19t-56 -19t-21 -54h-110z" />
    <glyph glyph-name="uni020C" unicode="&#x20c;" horiz-adv-x="878" 
d="M439 -12q-81 0 -150.5 29t-122 81t-82 122t-29.5 153t29.5 153.5t81.5 122t122 80t151 28.5q82 0 151.5 -28.5t122 -80.5t81.5 -122t29 -153t-29.5 -153t-81.5 -122t-122 -81t-151 -29zM439 96q58 0 106.5 21t84.5 58.5t56 88t20 109.5t-20 109t-56 88t-84.5 59
t-106.5 21t-106.5 -21t-84.5 -59t-55.5 -88t-19.5 -109t19.5 -109.5t55.5 -88t85 -58.5t106 -21zM285 844l-109 167h143l73 -167h-107zM486 844l-109 167h143l73 -167h-107z" />
    <glyph glyph-name="uni020D" unicode="&#x20d;" horiz-adv-x="653" 
d="M327 -12q-78 0 -142.5 37t-102.5 101t-38 145q0 82 38 145.5t102 100t143 36.5q80 0 143.5 -36.5t101 -100t37.5 -145.5t-38 -146t-102 -100.5t-142 -36.5zM327 93q48 0 85 23t58.5 63.5t21.5 91.5t-21.5 91t-58.5 63t-85 23q-47 0 -84.5 -23t-59 -63t-21.5 -91
t21.5 -91.5t59 -63.5t84.5 -23zM173 640l-109 167h143l73 -167h-107zM374 640l-109 167h143l73 -167h-107z" />
    <glyph glyph-name="uni020E" unicode="&#x20e;" horiz-adv-x="878" 
d="M439 -12q-81 0 -150.5 29t-122 81t-82 122t-29.5 153t29.5 153.5t81.5 122t122 80t151 28.5q82 0 151.5 -28.5t122 -80.5t81.5 -122t29 -153t-29.5 -153t-81.5 -122t-122 -81t-151 -29zM439 96q58 0 106.5 21t84.5 58.5t56 88t20 109.5t-20 109t-56 88t-84.5 59
t-106.5 21t-106.5 -21t-84.5 -59t-55.5 -88t-19.5 -109t19.5 -109.5t55.5 -88t85 -58.5t106 -21zM253 844q1 43 21.5 79.5t61.5 58.5t104 22t103.5 -21.5t61 -58t21.5 -80.5h-109q-1 35 -21 54t-56 19t-56 -19t-21 -54h-110z" />
    <glyph glyph-name="uni020F" unicode="&#x20f;" horiz-adv-x="653" 
d="M327 -12q-78 0 -142.5 37t-102.5 101t-38 145q0 82 38 145.5t102 100t143 36.5q80 0 143.5 -36.5t101 -100t37.5 -145.5t-38 -146t-102 -100.5t-142 -36.5zM327 93q48 0 85 23t58.5 63.5t21.5 91.5t-21.5 91t-58.5 63t-85 23q-47 0 -84.5 -23t-59 -63t-21.5 -91
t21.5 -91.5t59 -63.5t84.5 -23zM141 640q1 43 21.5 79.5t61.5 58.5t104 22t103.5 -21.5t61 -58t21.5 -80.5h-109q-1 35 -21 54t-56 19t-56 -19t-21 -54h-110z" />
    <glyph glyph-name="uni0210" unicode="&#x210;" horiz-adv-x="654" 
d="M77 0v745h271q75 0 132 -27.5t89.5 -80t32.5 -125.5q0 -77 -38.5 -132t-103.5 -80l172 -300h-134l-183 325l77 -45h-197v-280h-118zM195 385h155q41 0 71 16t46.5 44.5t16.5 67.5t-16.5 67.5t-46.5 44t-71 15.5h-155v-255zM171 844l-109 167h143l73 -167h-107zM372 844
l-109 167h143l73 -167h-107z" />
    <glyph glyph-name="uni0211" unicode="&#x211;" horiz-adv-x="362" 
d="M66 0v541h108v-109l-10 16q18 53 58 76.5t96 23.5h33v-103h-47q-56 0 -90.5 -34.5t-34.5 -98.5v-312h-113zM55 640l-109 167h143l73 -167h-107zM256 640l-109 167h143l73 -167h-107z" />
    <glyph glyph-name="uni0212" unicode="&#x212;" horiz-adv-x="654" 
d="M77 0v745h271q75 0 132 -27.5t89.5 -80t32.5 -125.5q0 -77 -38.5 -132t-103.5 -80l172 -300h-134l-183 325l77 -45h-197v-280h-118zM195 385h155q41 0 71 16t46.5 44.5t16.5 67.5t-16.5 67.5t-46.5 44t-71 15.5h-155v-255zM138 844q1 43 21.5 79.5t61.5 58.5t104 22
t103.5 -21.5t61 -58t21.5 -80.5h-109q-1 35 -21 54t-56 19t-56 -19t-21 -54h-110z" />
    <glyph glyph-name="uni0213" unicode="&#x213;" horiz-adv-x="362" 
d="M66 0v541h108v-109l-10 16q18 53 58 76.5t96 23.5h33v-103h-47q-56 0 -90.5 -34.5t-34.5 -98.5v-312h-113zM22 640q1 43 21.5 79.5t61.5 58.5t104 22t103.5 -21.5t61 -58t21.5 -80.5h-109q-1 35 -21 54t-56 19t-56 -19t-21 -54h-110z" />
    <glyph glyph-name="uni0214" unicode="&#x214;" horiz-adv-x="712" 
d="M356 -12q-83 0 -147.5 35t-101 96t-36.5 139v487h118v-482q0 -49 21.5 -87t59 -59t86.5 -21q50 0 87.5 21t59 59t21.5 87v482h117v-487q0 -78 -36 -139t-100.5 -96t-148.5 -35zM202 844l-109 167h143l73 -167h-107zM403 844l-109 167h143l73 -167h-107z" />
    <glyph glyph-name="uni0215" unicode="&#x215;" 
d="M259 -12q-61 0 -107 27.5t-71.5 77t-25.5 114.5v334h113v-324q0 -37 15 -65t42 -43.5t62 -15.5q36 0 63 16t42.5 45t15.5 68v319h112v-541h-107v106l12 -14q-19 -50 -63 -77t-103 -27zM140 640l-109 167h143l73 -167h-107zM341 640l-109 167h143l73 -167h-107z" />
    <glyph glyph-name="uni0216" unicode="&#x216;" horiz-adv-x="712" 
d="M356 -12q-83 0 -147.5 35t-101 96t-36.5 139v487h118v-482q0 -49 21.5 -87t59 -59t86.5 -21q50 0 87.5 21t59 59t21.5 87v482h117v-487q0 -78 -36 -139t-100.5 -96t-148.5 -35zM170 844q1 43 21.5 79.5t61.5 58.5t104 22t103.5 -21.5t61 -58t21.5 -80.5h-109
q-1 35 -21 54t-56 19t-56 -19t-21 -54h-110z" />
    <glyph glyph-name="uni0217" unicode="&#x217;" 
d="M259 -12q-61 0 -107 27.5t-71.5 77t-25.5 114.5v334h113v-324q0 -37 15 -65t42 -43.5t62 -15.5q36 0 63 16t42.5 45t15.5 68v319h112v-541h-107v106l12 -14q-19 -50 -63 -77t-103 -27zM107 640q1 43 21.5 79.5t61.5 58.5t104 22t103.5 -21.5t61 -58t21.5 -80.5h-109
q-1 35 -21 54t-56 19t-56 -19t-21 -54h-110z" />
    <glyph glyph-name="uni0218" unicode="&#x218;" horiz-adv-x="647" 
d="M338 -12q-70 0 -130 26.5t-102 72.5t-62 106l100 42q27 -69 79 -106t120 -37q40 0 70 12.5t46.5 35.5t16.5 53q0 41 -23 65t-68 38l-140 44q-84 26 -128 79.5t-44 125.5q0 63 31 110.5t85.5 74.5t124.5 27q67 0 122 -23.5t94.5 -64.5t57.5 -95l-98 -43q-22 59 -68.5 91
t-107.5 32q-37 0 -65 -12.5t-43.5 -36t-15.5 -54.5q0 -36 23 -64t70 -42l130 -41q89 -27 134 -77.5t45 -125.5q0 -62 -32.5 -110t-89.5 -75.5t-132 -27.5zM234 -251l34 181h142l-70 -181h-106z" />
    <glyph glyph-name="uni0219" unicode="&#x219;" horiz-adv-x="512" 
d="M266 -12q-83 0 -145.5 41t-87.5 110l87 41q22 -46 60.5 -73t85.5 -27q40 0 65 18t25 49q0 20 -11 32.5t-27.5 20.5t-33.5 12l-85 24q-70 20 -104.5 60.5t-34.5 94.5q0 49 25 85.5t69 56.5t99 20q74 0 132 -36.5t82 -101.5l-87 -41q-16 39 -50.5 62t-77.5 23
q-37 0 -59 -17.5t-22 -45.5q0 -19 10 -31.5t26 -20t33 -12.5l88 -26q67 -19 103 -59.5t36 -96.5q0 -48 -25.5 -84.5t-70.5 -57t-105 -20.5zM152 -251l34 181h142l-70 -181h-106z" />
    <glyph glyph-name="uni021A" unicode="&#x21a;" horiz-adv-x="532" 
d="M209 0v640h-198v105h510v-105h-195v-640h-117zM162 -251l34 181h142l-70 -181h-106z" />
    <glyph glyph-name="uni021B" unicode="&#x21b;" horiz-adv-x="405" 
d="M300 -6q-85 0 -132 48t-47 135v262h-95v102h15q38 0 59 22t21 60v42h113v-124h123v-102h-123v-257q0 -28 9 -47.5t29 -30t52 -10.5q8 0 18 1t19 2v-97q-14 -2 -31 -4t-30 -2zM188 -251l34 181h142l-70 -181h-106z" />
    <glyph glyph-name="uni022A" unicode="&#x22a;" horiz-adv-x="878" 
d="M439 -12q-81 0 -150.5 29t-122 81t-82 122t-29.5 153t29.5 153.5t81.5 122t122 80t151 28.5q82 0 151.5 -28.5t122 -80.5t81.5 -122t29 -153t-29.5 -153t-81.5 -122t-122 -81t-151 -29zM439 96q58 0 106.5 21t84.5 58.5t56 88t20 109.5t-20 109t-56 88t-84.5 59
t-106.5 21t-106.5 -21t-84.5 -59t-55.5 -88t-19.5 -109t19.5 -109.5t55.5 -88t85 -58.5t106 -21zM274 844v125h125v-125h-125zM479 844v125h125v-125h-125zM287 1040v95h305v-95h-305z" />
    <glyph glyph-name="uni022B" unicode="&#x22b;" horiz-adv-x="653" 
d="M327 -12q-78 0 -142.5 37t-102.5 101t-38 145q0 82 38 145.5t102 100t143 36.5q80 0 143.5 -36.5t101 -100t37.5 -145.5t-38 -146t-102 -100.5t-142 -36.5zM327 93q48 0 85 23t58.5 63.5t21.5 91.5t-21.5 91t-58.5 63t-85 23q-47 0 -84.5 -23t-59 -63t-21.5 -91
t21.5 -91.5t59 -63.5t84.5 -23zM162 640v125h125v-125h-125zM367 640v125h125v-125h-125zM175 836v95h305v-95h-305z" />
    <glyph glyph-name="uni022C" unicode="&#x22c;" horiz-adv-x="878" 
d="M439 -12q-81 0 -150.5 29t-122 81t-82 122t-29.5 153t29.5 153.5t81.5 122t122 80t151 28.5q82 0 151.5 -28.5t122 -80.5t81.5 -122t29 -153t-29.5 -153t-81.5 -122t-122 -81t-151 -29zM439 96q58 0 106.5 21t84.5 58.5t56 88t20 109.5t-20 109t-56 88t-84.5 59
t-106.5 21t-106.5 -21t-84.5 -59t-55.5 -88t-19.5 -109t19.5 -109.5t55.5 -88t85 -58.5t106 -21zM508 844q-27 0 -44.5 9t-30 20t-25 20t-29.5 9t-26 -13t-9 -41h-89q0 74 33 109.5t82 35.5q28 0 45.5 -8.5t30.5 -20t25.5 -20t28.5 -8.5q19 0 27.5 14t8.5 39h88
q0 -70 -33.5 -107.5t-82.5 -37.5zM287 1039v95h305v-95h-305z" />
    <glyph glyph-name="uni022D" unicode="&#x22d;" horiz-adv-x="653" 
d="M327 -12q-78 0 -142.5 37t-102.5 101t-38 145q0 82 38 145.5t102 100t143 36.5q80 0 143.5 -36.5t101 -100t37.5 -145.5t-38 -146t-102 -100.5t-142 -36.5zM327 93q48 0 85 23t58.5 63.5t21.5 91.5t-21.5 91t-58.5 63t-85 23q-47 0 -84.5 -23t-59 -63t-21.5 -91
t21.5 -91.5t59 -63.5t84.5 -23zM396 640q-27 0 -44.5 9t-30 20t-25 20t-29.5 9t-26 -13t-9 -41h-89q0 74 33 109.5t82 35.5q28 0 45.5 -8.5t30.5 -20t25.5 -20t28.5 -8.5q19 0 27.5 14t8.5 39h88q0 -70 -33.5 -107.5t-82.5 -37.5zM175 835v95h305v-95h-305z" />
    <glyph glyph-name="uni0230" unicode="&#x230;" horiz-adv-x="878" 
d="M439 -12q-81 0 -150.5 29t-122 81t-82 122t-29.5 153t29.5 153.5t81.5 122t122 80t151 28.5q82 0 151.5 -28.5t122 -80.5t81.5 -122t29 -153t-29.5 -153t-81.5 -122t-122 -81t-151 -29zM439 96q58 0 106.5 21t84.5 58.5t56 88t20 109.5t-20 109t-56 88t-84.5 59
t-106.5 21t-106.5 -21t-84.5 -59t-55.5 -88t-19.5 -109t19.5 -109.5t55.5 -88t85 -58.5t106 -21zM377 844v125h125v-125h-125zM287 1040v95h305v-95h-305z" />
    <glyph glyph-name="uni0231" unicode="&#x231;" horiz-adv-x="653" 
d="M327 -12q-78 0 -142.5 37t-102.5 101t-38 145q0 82 38 145.5t102 100t143 36.5q80 0 143.5 -36.5t101 -100t37.5 -145.5t-38 -146t-102 -100.5t-142 -36.5zM327 93q48 0 85 23t58.5 63.5t21.5 91.5t-21.5 91t-58.5 63t-85 23q-47 0 -84.5 -23t-59 -63t-21.5 -91
t21.5 -91.5t59 -63.5t84.5 -23zM265 640v125h125v-125h-125zM175 836v95h305v-95h-305z" />
    <glyph glyph-name="uni0232" unicode="&#x232;" horiz-adv-x="648" 
d="M266 0v336l-255 409h133l204 -331h-47l203 331h133l-254 -409v-336h-117zM172 864v95h305v-95h-305z" />
    <glyph glyph-name="uni0233" unicode="&#x233;" horiz-adv-x="569" 
d="M114 -221q-20 0 -39.5 3.5t-35.5 10.5v97q12 -3 29 -5.5t33 -2.5q47 0 69.5 20.5t40.5 63.5l36 82l-2 -95l-234 588h121l173 -451h-41l172 451h122l-239 -600q-19 -48 -47.5 -84.5t-67 -57t-90.5 -20.5zM132 660v95h305v-95h-305z" />
    <glyph glyph-name="uni0237" unicode="&#x237;" horiz-adv-x="245" 
d="M-17 -221q-11 0 -24.5 1.5t-22.5 3.5v98q19 -3 38 -3q42 0 67 21.5t25 64.5v576h113v-576q0 -59 -25 -101t-69 -63.5t-102 -21.5z" />
    <glyph glyph-name="uni0259" unicode="&#x259;" horiz-adv-x="613" 
d="M303 -12q-62 0 -109.5 21t-81 58t-51 84t-17.5 99q0 14 1.5 27.5t4.5 25.5h431v-90h-367l53 41q-9 -48 7 -87t50.5 -61.5t78.5 -22.5t79.5 22.5t54.5 64.5t15 100q4 56 -16 97t-58 63.5t-85 22.5q-49 0 -83.5 -22t-55.5 -57l-92 46q17 38 50.5 68t80 47.5t101.5 17.5
q81 0 143 -37.5t97 -101.5t35 -145q0 -80 -35 -144t-95 -100.5t-136 -36.5z" />
    <glyph glyph-name="circumflex" unicode="&#x2c6;" horiz-adv-x="521" 
d="M116 640l118 160h132l119 -160h-116l-69 91l-68 -91h-116z" />
    <glyph glyph-name="caron" unicode="&#x2c7;" horiz-adv-x="521" 
d="M234 640l-118 160h116l68 -90l69 90h116l-119 -160h-132z" />
    <glyph glyph-name="breve" unicode="&#x2d8;" horiz-adv-x="507" 
d="M303 640q-63 0 -104 22.5t-61.5 59t-21.5 78.5h110q1 -34 21 -53t56 -19t56 19t21 53h109q-1 -43 -21.5 -79.5t-61 -58.5t-103.5 -22z" />
    <glyph glyph-name="dotaccent" unicode="&#x2d9;" horiz-adv-x="287" 
d="M116 640v125h125v-125h-125z" />
    <glyph glyph-name="ring" unicode="&#x2da;" horiz-adv-x="383" 
d="M236 605q-50 0 -85 32t-35 85q0 52 35 84t85 32t85 -32t35 -84t-35 -84.5t-85 -32.5zM236 676q20 0 32.5 12.5t12.5 33.5q0 20 -12.5 33t-32.5 13q-19 0 -32 -12.5t-13 -33.5t13 -33.5t32 -12.5z" />
    <glyph glyph-name="ogonek" unicode="&#x2db;" horiz-adv-x="382" 
d="M248 -235q-60 0 -96 32.5t-36 81.5q0 37 17.5 68.5t50 54t77.5 31.5h30v-33q-21 -4 -39 -19t-29 -37.5t-11 -49.5q0 -23 16 -37t37 -14q18 0 33.5 6.5t29.5 18.5l26 -68q-20 -16 -47 -25.5t-59 -9.5z" />
    <glyph glyph-name="tilde" unicode="&#x2dc;" horiz-adv-x="510" 
d="M369 640q-27 0 -44.5 9t-30 20t-25 20t-29.5 9t-26 -13t-9 -41h-89q0 74 33 109.5t82 35.5q28 0 45.5 -8.5t30.5 -20t25.5 -20t28.5 -8.5q19 0 27.5 14t8.5 39h88q0 -70 -33.5 -107.5t-82.5 -37.5z" />
    <glyph glyph-name="hungarumlaut" unicode="&#x2dd;" horiz-adv-x="523" 
d="M116 640l48 165h143l-84 -165h-107zM317 640l48 165h143l-84 -165h-107z" />
    <glyph glyph-name="gravecomb" unicode="&#x300;" horiz-adv-x="0" 
d="M225 640l-109 165h148l73 -165h-112z" />
    <glyph glyph-name="acutecomb" unicode="&#x301;" horiz-adv-x="0" 
d="M116 640l73 165h148l-109 -165h-112z" />
    <glyph glyph-name="uni0302" unicode="&#x302;" horiz-adv-x="0" 
d="M116 640l118 160h132l119 -160h-116l-69 91l-68 -91h-116z" />
    <glyph glyph-name="tildecomb" unicode="&#x303;" horiz-adv-x="0" 
d="M369 640q-27 0 -44.5 9t-30 20t-25 20t-29.5 9t-26 -13t-9 -41h-89q0 74 33 109.5t82 35.5q28 0 45.5 -8.5t30.5 -20t25.5 -20t28.5 -8.5q19 0 27.5 14t8.5 39h88q0 -70 -33.5 -107.5t-82.5 -37.5z" />
    <glyph glyph-name="uni0304" unicode="&#x304;" horiz-adv-x="0" 
d="M116 660v95h305v-95h-305z" />
    <glyph glyph-name="uni0306" unicode="&#x306;" horiz-adv-x="0" 
d="M303 640q-63 0 -104 22.5t-61.5 59t-21.5 78.5h110q1 -34 21 -53t56 -19t56 19t21 53h109q-1 -43 -21.5 -79.5t-61 -58.5t-103.5 -22z" />
    <glyph glyph-name="uni0307" unicode="&#x307;" horiz-adv-x="0" 
d="M116 640v125h125v-125h-125z" />
    <glyph glyph-name="uni0308" unicode="&#x308;" horiz-adv-x="0" 
d="M116 640v125h125v-125h-125zM321 640v125h125v-125h-125z" />
    <glyph glyph-name="hookabovecomb" unicode="&#x309;" horiz-adv-x="0" 
d="M235 600l-48 59q27 12 38 25.5t11 32.5q0 18 -14.5 30t-40.5 12q-12 0 -24 -2t-27 -8l-14 72q19 9 40 13t43 4q63 0 100.5 -30.5t37.5 -81.5q0 -38 -27.5 -71t-74.5 -55z" />
    <glyph glyph-name="uni030A" unicode="&#x30a;" horiz-adv-x="0" 
d="M236 605q-50 0 -85 32t-35 85q0 52 35 84t85 32t85 -32t35 -84t-35 -84.5t-85 -32.5zM236 676q20 0 32.5 12.5t12.5 33.5q0 20 -12.5 33t-32.5 13q-19 0 -32 -12.5t-13 -33.5t13 -33.5t32 -12.5z" />
    <glyph glyph-name="uni030B" unicode="&#x30b;" horiz-adv-x="0" 
d="M116 640l48 165h143l-84 -165h-107zM317 640l48 165h143l-84 -165h-107z" />
    <glyph glyph-name="uni030C" unicode="&#x30c;" horiz-adv-x="0" 
d="M234 640l-118 160h116l68 -90l69 90h116l-119 -160h-132z" />
    <glyph glyph-name="uni030F" unicode="&#x30f;" horiz-adv-x="0" 
d="M225 640l-109 167h143l73 -167h-107zM426 640l-109 167h143l73 -167h-107z" />
    <glyph glyph-name="uni0311" unicode="&#x311;" horiz-adv-x="0" 
d="M116 640q1 43 21.5 79.5t61.5 58.5t104 22t103.5 -21.5t61 -58t21.5 -80.5h-109q-1 35 -21 54t-56 19t-56 -19t-21 -54h-110z" />
    <glyph glyph-name="uni0312" unicode="&#x312;" horiz-adv-x="0" 
d="M116 600l70 182h106l-34 -182h-142z" />
    <glyph glyph-name="uni031B" unicode="&#x31b;" horiz-adv-x="0" 
d="M116 640v82h9q9 0 20.5 3t20 14t8.5 34q0 19 -6.5 39t-14.5 39h100q9 -20 16 -41t7 -47q0 -63 -37.5 -93t-97.5 -30h-25z" />
    <glyph glyph-name="dotbelowcomb" unicode="&#x323;" horiz-adv-x="0" 
d="M116 -215v125h125v-125h-125z" />
    <glyph glyph-name="uni0324" unicode="&#x324;" horiz-adv-x="0" 
d="M116 -215v125h125v-125h-125zM321 -215v125h125v-125h-125z" />
    <glyph glyph-name="uni0326" unicode="&#x326;" horiz-adv-x="0" 
d="M116 -251l34 181h142l-70 -181h-106z" />
    <glyph glyph-name="uni0327" unicode="&#x327;" horiz-adv-x="0" 
d="M227 -235q-28 0 -59 9t-52 26l26 68q15 -12 33.5 -18.5t36.5 -6.5q22 0 34.5 10t12.5 27q0 20 -23.5 32t-72.5 17l22 81h70l-11 -43q53 -8 81.5 -33t28.5 -63q0 -47 -35 -76.5t-92 -29.5z" />
    <glyph glyph-name="uni0328" unicode="&#x328;" horiz-adv-x="0" 
d="M248 -235q-60 0 -96 32.5t-36 81.5q0 37 17.5 68.5t50 54t77.5 31.5h30v-33q-21 -4 -39 -19t-29 -37.5t-11 -49.5q0 -23 16 -37t37 -14q18 0 33.5 6.5t29.5 18.5l26 -68q-20 -16 -47 -25.5t-59 -9.5z" />
    <glyph glyph-name="uni032E" unicode="&#x32e;" horiz-adv-x="0" 
d="M303 -250q-63 0 -104 22.5t-61.5 59t-21.5 78.5h110q1 -34 21 -53t56 -19t56 19t21 53h109q-1 -43 -21.5 -79.5t-61 -58.5t-103.5 -22z" />
    <glyph glyph-name="uni0331" unicode="&#x331;" horiz-adv-x="0" 
d="M116 -195v95h305v-95h-305z" />
    <glyph glyph-name="uni0394" unicode="&#x394;" horiz-adv-x="619" 
d="M11 0v105l226 640h146l225 -640v-105h-597zM120 56l-35 49h449l-35 -49l-206 606h33z" />
    <glyph glyph-name="uni03A9" unicode="&#x3a9;" horiz-adv-x="878" 
d="M55 0v105h176l-24 -21q-69 47 -110.5 122.5t-41.5 166.5q0 83 29.5 153.5t81.5 122t122 80t151 28.5q82 0 151.5 -28.5t122 -80t81.5 -122t29 -153.5q0 -91 -41 -166.5t-110 -122.5l-25 21h176v-105h-305v105q56 17 98 55.5t66 93.5t24 119q0 59 -20 109t-56 88t-84.5 59
t-106.5 21t-106.5 -21t-84.5 -59t-55.5 -88t-19.5 -109q0 -64 23.5 -119t66 -93.5t98.5 -55.5v-105h-306z" />
    <glyph glyph-name="pi" unicode="&#x3c0;" horiz-adv-x="670" 
d="M121 0v439h-95v102h619v-102h-94v-439h-113v439h-205v-439h-112z" />
    <glyph glyph-name="uni0E3F" unicode="&#xe3f;" horiz-adv-x="692" 
d="M77 0v745h314q70 0 121 -24.5t78 -70t27 -107.5q0 -54 -27.5 -98.5t-85.5 -70.5v50q51 -20 83 -50.5t46.5 -68.5t14.5 -80q0 -105 -68.5 -165t-187.5 -60h-315zM195 105h206q59 0 94 32.5t35 86.5q0 55 -35 87.5t-94 32.5h-206v-239zM195 448h199q48 0 77 27.5t29 72.5
t-29 70t-77 25h-199v-195zM300 -100v945h80v-945h-80z" />
    <glyph glyph-name="uni1E08" unicode="&#x1e08;" horiz-adv-x="777" 
d="M424 -12q-79 0 -146.5 29t-117 80.5t-77.5 121.5t-28 154q0 83 27.5 153.5t77.5 122t117 80t147 28.5q79 0 141.5 -27t105.5 -70.5t62 -94.5l-106 -50q-24 60 -76.5 97.5t-126.5 37.5t-131 -35t-88.5 -97t-31.5 -145t31.5 -145.5t88.5 -97t131 -34.5t126.5 37t76.5 97
l106 -50q-19 -50 -62 -94t-105.5 -71t-141.5 -27zM436 -235q-28 0 -59 9t-52 26l26 68q15 -12 33.5 -18.5t36.5 -6.5q22 0 34.5 10t12.5 27q0 20 -23.5 32t-72.5 17l22 81h70l-11 -43q53 -8 81.5 -33t28.5 -63q0 -47 -35 -76.5t-92 -29.5zM368 844l73 165h148l-109 -165
h-112z" />
    <glyph glyph-name="uni1E09" unicode="&#x1e09;" horiz-adv-x="606" 
d="M323 -12q-81 0 -143.5 37.5t-99 101.5t-36.5 145q0 80 36 144t99 100.5t144 36.5q55 0 103 -19.5t83.5 -53.5t52.5 -79l-99 -46q-17 42 -54.5 67.5t-85.5 25.5q-46 0 -82.5 -22.5t-57.5 -63t-21 -91.5t21 -91.5t57.5 -63.5t82.5 -23q49 0 85.5 25.5t54.5 68.5l99 -47
q-16 -43 -51.5 -77.5t-83.5 -54.5t-104 -20zM334 -235q-28 0 -59 9t-52 26l26 68q15 -12 33.5 -18.5t36.5 -6.5q22 0 34.5 10t12.5 27q0 20 -23.5 32t-72.5 17l22 81h70l-11 -43q53 -8 81.5 -33t28.5 -63q0 -47 -35 -76.5t-92 -29.5zM267 640l73 165h148l-109 -165h-112z
" />
    <glyph glyph-name="uni1E0C" unicode="&#x1e0c;" horiz-adv-x="741" 
d="M77 0v745h244q116 0 201.5 -46.5t132.5 -130.5t47 -195q0 -110 -47 -194.5t-132.5 -131.5t-201.5 -47h-244zM195 105h128q79 0 137.5 33t90.5 93t32 142t-32.5 141.5t-90.5 92.5t-137 33h-128v-535zM316 -215v125h125v-125h-125z" />
    <glyph glyph-name="uni1E0D" unicode="&#x1e0d;" horiz-adv-x="670" 
d="M316 -12q-78 0 -139.5 37.5t-97 101.5t-35.5 144t36 144t97 101t138 37q65 0 115 -26t79 -72l-17 -26v328h112v-757h-107v110l13 -21q-28 -49 -80 -75t-114 -26zM327 93q47 0 84.5 23t59 63.5t21.5 91.5t-21.5 91t-59 63t-84.5 23t-85 -23t-59 -63t-21 -91t21 -91.5
t58.5 -63.5t85.5 -23zM273 -215v125h125v-125h-125z" />
    <glyph glyph-name="uni1E0E" unicode="&#x1e0e;" horiz-adv-x="741" 
d="M77 0v745h244q116 0 201.5 -46.5t132.5 -130.5t47 -195q0 -110 -47 -194.5t-132.5 -131.5t-201.5 -47h-244zM195 105h128q79 0 137.5 33t90.5 93t32 142t-32.5 141.5t-90.5 92.5t-137 33h-128v-535zM226 -195v95h305v-95h-305z" />
    <glyph glyph-name="uni1E0F" unicode="&#x1e0f;" horiz-adv-x="670" 
d="M316 -12q-78 0 -139.5 37.5t-97 101.5t-35.5 144t36 144t97 101t138 37q65 0 115 -26t79 -72l-17 -26v328h112v-757h-107v110l13 -21q-28 -49 -80 -75t-114 -26zM327 93q47 0 84.5 23t59 63.5t21.5 91.5t-21.5 91t-59 63t-84.5 23t-85 -23t-59 -63t-21 -91t21 -91.5
t58.5 -63.5t85.5 -23zM183 -195v95h305v-95h-305z" />
    <glyph glyph-name="uni1E14" unicode="&#x1e14;" horiz-adv-x="601" 
d="M77 0v745h491v-105h-373v-214h353v-105h-353v-216h373v-105h-491zM170 864v95h305v-95h-305zM267 1024l-109 165h148l73 -165h-112z" />
    <glyph glyph-name="uni1E15" unicode="&#x1e15;" horiz-adv-x="613" 
d="M320 -12q-81 0 -143.5 37.5t-97.5 102t-35 144.5q0 82 35.5 145t95.5 99.5t136 36.5q61 0 109 -21t81 -57.5t50.5 -83.5t17.5 -100q0 -13 -1 -27t-4 -26h-431v90h367l-54 -41q10 49 -6.5 87.5t-50 61t-78.5 22.5t-80 -22.5t-54 -64t-15 -100.5q-5 -55 15.5 -96t58 -64
t85.5 -23q49 0 83.5 22t54.5 57l92 -45q-16 -38 -49.5 -68.5t-80 -48t-101.5 -17.5zM155 660v95h305v-95h-305zM252 820l-109 165h148l73 -165h-112z" />
    <glyph glyph-name="uni1E16" unicode="&#x1e16;" horiz-adv-x="601" 
d="M77 0v745h491v-105h-373v-214h353v-105h-353v-216h373v-105h-491zM263 1024l72 165h148l-109 -165h-111zM166 864v95h305v-95h-305z" />
    <glyph glyph-name="uni1E17" unicode="&#x1e17;" horiz-adv-x="613" 
d="M320 -12q-81 0 -143.5 37.5t-97.5 102t-35 144.5q0 82 35.5 145t95.5 99.5t136 36.5q61 0 109 -21t81 -57.5t50.5 -83.5t17.5 -100q0 -13 -1 -27t-4 -26h-431v90h367l-54 -41q10 49 -6.5 87.5t-50 61t-78.5 22.5t-80 -22.5t-54 -64t-15 -100.5q-5 -55 15.5 -96t58 -64
t85.5 -23q49 0 83.5 22t54.5 57l92 -45q-16 -38 -49.5 -68.5t-80 -48t-101.5 -17.5zM247 820l72 165h148l-109 -165h-111zM150 660v95h305v-95h-305z" />
    <glyph glyph-name="uni1E1C" unicode="&#x1e1c;" horiz-adv-x="601" 
d="M77 0v745h491v-105h-373v-214h353v-105h-353v-216h373v-105h-491zM334 -235q-28 0 -59 9t-52 26l26 68q15 -12 33.5 -18.5t36.5 -6.5q22 0 34.5 10t12.5 27q0 20 -23.5 32t-72.5 17l22 81h70l-11 -43q53 -8 81.5 -33t28.5 -63q0 -47 -35 -76.5t-92 -29.5zM323 847
q-63 0 -104 22.5t-61.5 59t-21.5 78.5h110q1 -34 21 -53t56 -19t56 19t21 53h109q-1 -43 -21.5 -79.5t-61 -58.5t-103.5 -22z" />
    <glyph glyph-name="uni1E1D" unicode="&#x1e1d;" horiz-adv-x="613" 
d="M320 -12q-81 0 -143.5 37.5t-97.5 102t-35 144.5q0 82 35.5 145t95.5 99.5t136 36.5q61 0 109 -21t81 -57.5t50.5 -83.5t17.5 -100q0 -13 -1 -27t-4 -26h-431v90h367l-54 -41q10 49 -6.5 87.5t-50 61t-78.5 22.5t-80 -22.5t-54 -64t-15 -100.5q-5 -55 15.5 -96t58 -64
t85.5 -23q49 0 83.5 22t54.5 57l92 -45q-16 -38 -49.5 -68.5t-80 -48t-101.5 -17.5zM319 -235q-28 0 -59 9t-52 26l26 68q15 -12 33.5 -18.5t36.5 -6.5q22 0 34.5 10t12.5 27q0 20 -23.5 32t-72.5 17l22 81h70l-11 -43q53 -8 81.5 -33t28.5 -63q0 -47 -35 -76.5t-92 -29.5z
M308 643q-63 0 -104 22.5t-61.5 59t-21.5 78.5h110q1 -34 21 -53t56 -19t56 19t21 53h109q-1 -43 -21.5 -79.5t-61 -58.5t-103.5 -22z" />
    <glyph glyph-name="uni1E20" unicode="&#x1e20;" horiz-adv-x="813" 
d="M426 -12q-79 0 -146.5 29t-118 80.5t-78.5 121.5t-28 154q0 83 27.5 153.5t77.5 122t117 80t147 28.5q79 0 141.5 -27t105.5 -70.5t62 -94.5l-105 -51q-23 61 -76 98.5t-128 37.5q-74 0 -131 -35t-88.5 -97t-31.5 -145t32.5 -145.5t89.5 -97t131 -34.5q62 0 113.5 25.5
t82.5 72t31 108.5v51l53 -48h-282v100h346v-70q0 -82 -28 -146.5t-76 -109.5t-110 -68t-130 -23zM254 864v95h305v-95h-305z" />
    <glyph glyph-name="uni1E21" unicode="&#x1e21;" horiz-adv-x="655" 
d="M327 -220q-59 0 -109 19t-86 52.5t-54 78.5l104 43q14 -38 51.5 -63t92.5 -25q43 0 77 16.5t54 48t20 75.5v122l20 -23q-28 -52 -77.5 -79t-111.5 -27q-75 0 -135 35t-94.5 96t-34.5 137q0 77 34.5 137t93.5 95t135 35q62 0 110.5 -26.5t79.5 -76.5l-15 -28v119h107v-516
q0 -70 -33.5 -125.5t-92.5 -87.5t-136 -32zM321 123q45 0 80 21.5t55.5 58t20.5 82.5t-21 83t-56 58.5t-79 21.5q-46 0 -82 -21.5t-56.5 -58t-20.5 -83.5q0 -45 20.5 -82t56.5 -58.5t82 -21.5zM175 660v95h305v-95h-305z" />
    <glyph glyph-name="uni1E24" unicode="&#x1e24;" horiz-adv-x="734" 
d="M77 0v745h118v-328h345v328h117v-745h-117v312h-345v-312h-118zM305 -215v125h125v-125h-125z" />
    <glyph glyph-name="uni1E25" unicode="&#x1e25;" 
d="M66 0v757h113v-322l-18 14q20 51 64 77.5t102 26.5q60 0 106 -26t72 -72t26 -105v-350h-112v319q0 41 -15.5 69.5t-42.5 44t-62 15.5q-34 0 -61.5 -15.5t-43 -44.5t-15.5 -69v-319h-113zM231 -215v125h125v-125h-125z" />
    <glyph glyph-name="uni1E2A" unicode="&#x1e2a;" horiz-adv-x="734" 
d="M77 0v745h118v-328h345v328h117v-745h-117v312h-345v-312h-118zM368 -250q-63 0 -104 22.5t-61.5 59t-21.5 78.5h110q1 -34 21 -53t56 -19t56 19t21 53h109q-1 -43 -21.5 -79.5t-61 -58.5t-103.5 -22z" />
    <glyph glyph-name="uni1E2B" unicode="&#x1e2b;" 
d="M66 0v757h113v-322l-18 14q20 51 64 77.5t102 26.5q60 0 106 -26t72 -72t26 -105v-350h-112v319q0 41 -15.5 69.5t-42.5 44t-62 15.5q-34 0 -61.5 -15.5t-43 -44.5t-15.5 -69v-319h-113zM294 -250q-63 0 -104 22.5t-61.5 59t-21.5 78.5h110q1 -34 21 -53t56 -19t56 19
t21 53h109q-1 -43 -21.5 -79.5t-61 -58.5t-103.5 -22z" />
    <glyph glyph-name="uni1E2E" unicode="&#x1e2e;" horiz-adv-x="272" 
d="M77 0v745h118v-745h-118zM78 1024l73 165h148l-109 -165h-112zM-31 844v125h125v-125h-125zM174 844v125h125v-125h-125z" />
    <glyph glyph-name="uni1E2F" unicode="&#x1e2f;" horiz-adv-x="219" 
d="M53 0v541h113v-541h-113zM51 820l73 165h148l-109 -165h-112zM-58 640v125h125v-125h-125zM147 640v125h125v-125h-125z" />
    <glyph glyph-name="uni1E36" unicode="&#x1e36;" horiz-adv-x="539" 
d="M77 0v745h118v-640h322v-105h-440zM235 -215v125h125v-125h-125z" />
    <glyph glyph-name="uni1E37" unicode="&#x1e37;" horiz-adv-x="245" 
d="M66 0v757h113v-757h-113zM60 -215v125h125v-125h-125z" />
    <glyph glyph-name="uni1E3A" unicode="&#x1e3a;" horiz-adv-x="539" 
d="M77 0v745h118v-640h322v-105h-440zM145 -195v95h305v-95h-305z" />
    <glyph glyph-name="uni1E3B" unicode="&#x1e3b;" horiz-adv-x="245" 
d="M66 0v757h113v-757h-113zM-30 -195v95h305v-95h-305z" />
    <glyph glyph-name="uni1E42" unicode="&#x1e42;" horiz-adv-x="874" 
d="M77 0v745h110l280 -388h-55l275 388h110v-745h-117v606l44 -12l-281 -384h-12l-275 384l39 12v-606h-118zM375 -215v125h125v-125h-125z" />
    <glyph glyph-name="uni1E43" unicode="&#x1e43;" horiz-adv-x="919" 
d="M66 0v541h108v-117l-14 18q17 55 62 83t103 28q65 0 115.5 -34.5t67.5 -91.5l-32 -3q24 65 73.5 97t113.5 32q56 0 101.5 -26t72.5 -72t27 -105v-350h-113v319q0 41 -14.5 69.5t-40 44t-59.5 15.5t-60 -15.5t-41 -44.5t-15 -69v-319h-112v319q0 41 -14.5 69.5t-40 44
t-60.5 15.5q-34 0 -60 -15.5t-40.5 -44.5t-14.5 -69v-319h-113zM397 -215v125h125v-125h-125z" />
    <glyph glyph-name="uni1E44" unicode="&#x1e44;" horiz-adv-x="739" 
d="M77 0v745h95l418 -577l-45 -7v584h117v-745h-95l-415 581l43 8v-589h-118zM307 844v125h125v-125h-125z" />
    <glyph glyph-name="uni1E45" unicode="&#x1e45;" 
d="M66 0v541h108v-106l-13 14q20 51 64 77.5t102 26.5q60 0 106 -26t72 -72t26 -106v-349h-112v319q0 41 -15 69.5t-42.5 44t-62.5 15.5t-62.5 -15.5t-42.5 -44.5t-15 -69v-319h-113zM231 640v125h125v-125h-125z" />
    <glyph glyph-name="uni1E46" unicode="&#x1e46;" horiz-adv-x="739" 
d="M77 0v745h95l418 -577l-45 -7v584h117v-745h-95l-415 581l43 8v-589h-118zM307 -215v125h125v-125h-125z" />
    <glyph glyph-name="uni1E47" unicode="&#x1e47;" 
d="M66 0v541h108v-106l-13 14q20 51 64 77.5t102 26.5q60 0 106 -26t72 -72t26 -106v-349h-112v319q0 41 -15 69.5t-42.5 44t-62.5 15.5t-62.5 -15.5t-42.5 -44.5t-15 -69v-319h-113zM231 -215v125h125v-125h-125z" />
    <glyph glyph-name="uni1E48" unicode="&#x1e48;" horiz-adv-x="739" 
d="M77 0v745h95l418 -577l-45 -7v584h117v-745h-95l-415 581l43 8v-589h-118zM217 -195v95h305v-95h-305z" />
    <glyph glyph-name="uni1E49" unicode="&#x1e49;" 
d="M66 0v541h108v-106l-13 14q20 51 64 77.5t102 26.5q60 0 106 -26t72 -72t26 -106v-349h-112v319q0 41 -15 69.5t-42.5 44t-62.5 15.5t-62.5 -15.5t-42.5 -44.5t-15 -69v-319h-113zM141 -195v95h305v-95h-305z" />
    <glyph glyph-name="uni1E4C" unicode="&#x1e4c;" horiz-adv-x="878" 
d="M439 -12q-81 0 -150.5 29t-122 81t-82 122t-29.5 153t29.5 153.5t81.5 122t122 80t151 28.5q82 0 151.5 -28.5t122 -80.5t81.5 -122t29 -153t-29.5 -153t-81.5 -122t-122 -81t-151 -29zM439 96q58 0 106.5 21t84.5 58.5t56 88t20 109.5t-20 109t-56 88t-84.5 59
t-106.5 21t-106.5 -21t-84.5 -59t-55.5 -88t-19.5 -109t19.5 -109.5t55.5 -88t85 -58.5t106 -21zM508 844q-27 0 -44.5 9t-30 20t-25 20t-29.5 9t-26 -13t-9 -41h-89q0 74 33 109.5t82 35.5q28 0 45.5 -8.5t30.5 -20t25.5 -20t28.5 -8.5q19 0 27.5 14t8.5 39h88
q0 -70 -33.5 -107.5t-82.5 -37.5zM384 1024l72 165h148l-109 -165h-111z" />
    <glyph glyph-name="uni1E4D" unicode="&#x1e4d;" horiz-adv-x="653" 
d="M327 -12q-78 0 -142.5 37t-102.5 101t-38 145q0 82 38 145.5t102 100t143 36.5q80 0 143.5 -36.5t101 -100t37.5 -145.5t-38 -146t-102 -100.5t-142 -36.5zM327 93q48 0 85 23t58.5 63.5t21.5 91.5t-21.5 91t-58.5 63t-85 23q-47 0 -84.5 -23t-59 -63t-21.5 -91
t21.5 -91.5t59 -63.5t84.5 -23zM396 640q-27 0 -44.5 9t-30 20t-25 20t-29.5 9t-26 -13t-9 -41h-89q0 74 33 109.5t82 35.5q28 0 45.5 -8.5t30.5 -20t25.5 -20t28.5 -8.5q19 0 27.5 14t8.5 39h88q0 -70 -33.5 -107.5t-82.5 -37.5zM272 820l72 165h148l-109 -165h-111z" />
    <glyph glyph-name="uni1E4E" unicode="&#x1e4e;" horiz-adv-x="878" 
d="M439 -12q-81 0 -150.5 29t-122 81t-82 122t-29.5 153t29.5 153.5t81.5 122t122 80t151 28.5q82 0 151.5 -28.5t122 -80.5t81.5 -122t29 -153t-29.5 -153t-81.5 -122t-122 -81t-151 -29zM439 96q58 0 106.5 21t84.5 58.5t56 88t20 109.5t-20 109t-56 88t-84.5 59
t-106.5 21t-106.5 -21t-84.5 -59t-55.5 -88t-19.5 -109t19.5 -109.5t55.5 -88t85 -58.5t106 -21zM508 844q-27 0 -44.5 9t-30 20t-25 20t-29.5 9t-26 -13t-9 -41h-89q0 74 33 109.5t82 35.5q28 0 45.5 -8.5t30.5 -20t25.5 -20t28.5 -8.5q19 0 27.5 14t8.5 39h88
q0 -70 -33.5 -107.5t-82.5 -37.5zM275 1034v125h125v-125h-125zM480 1034v125h125v-125h-125z" />
    <glyph glyph-name="uni1E4F" unicode="&#x1e4f;" horiz-adv-x="653" 
d="M327 -12q-78 0 -142.5 37t-102.5 101t-38 145q0 82 38 145.5t102 100t143 36.5q80 0 143.5 -36.5t101 -100t37.5 -145.5t-38 -146t-102 -100.5t-142 -36.5zM327 93q48 0 85 23t58.5 63.5t21.5 91.5t-21.5 91t-58.5 63t-85 23q-47 0 -84.5 -23t-59 -63t-21.5 -91
t21.5 -91.5t59 -63.5t84.5 -23zM396 640q-27 0 -44.5 9t-30 20t-25 20t-29.5 9t-26 -13t-9 -41h-89q0 74 33 109.5t82 35.5q28 0 45.5 -8.5t30.5 -20t25.5 -20t28.5 -8.5q19 0 27.5 14t8.5 39h88q0 -70 -33.5 -107.5t-82.5 -37.5zM163 830v125h125v-125h-125zM368 830v125
h125v-125h-125z" />
    <glyph glyph-name="uni1E50" unicode="&#x1e50;" horiz-adv-x="878" 
d="M439 -12q-81 0 -150.5 29t-122 81t-82 122t-29.5 153t29.5 153.5t81.5 122t122 80t151 28.5q82 0 151.5 -28.5t122 -80.5t81.5 -122t29 -153t-29.5 -153t-81.5 -122t-122 -81t-151 -29zM439 96q58 0 106.5 21t84.5 58.5t56 88t20 109.5t-20 109t-56 88t-84.5 59
t-106.5 21t-106.5 -21t-84.5 -59t-55.5 -88t-19.5 -109t19.5 -109.5t55.5 -88t85 -58.5t106 -21zM287 864v95h305v-95h-305zM384 1024l-109 165h148l73 -165h-112z" />
    <glyph glyph-name="uni1E51" unicode="&#x1e51;" horiz-adv-x="653" 
d="M327 -12q-78 0 -142.5 37t-102.5 101t-38 145q0 82 38 145.5t102 100t143 36.5q80 0 143.5 -36.5t101 -100t37.5 -145.5t-38 -146t-102 -100.5t-142 -36.5zM327 93q48 0 85 23t58.5 63.5t21.5 91.5t-21.5 91t-58.5 63t-85 23q-47 0 -84.5 -23t-59 -63t-21.5 -91
t21.5 -91.5t59 -63.5t84.5 -23zM175 660v95h305v-95h-305zM272 820l-109 165h148l73 -165h-112z" />
    <glyph glyph-name="uni1E52" unicode="&#x1e52;" horiz-adv-x="878" 
d="M439 -12q-81 0 -150.5 29t-122 81t-82 122t-29.5 153t29.5 153.5t81.5 122t122 80t151 28.5q82 0 151.5 -28.5t122 -80.5t81.5 -122t29 -153t-29.5 -153t-81.5 -122t-122 -81t-151 -29zM439 96q58 0 106.5 21t84.5 58.5t56 88t20 109.5t-20 109t-56 88t-84.5 59
t-106.5 21t-106.5 -21t-84.5 -59t-55.5 -88t-19.5 -109t19.5 -109.5t55.5 -88t85 -58.5t106 -21zM379 1024l72 165h148l-109 -165h-111zM282 864v95h305v-95h-305z" />
    <glyph glyph-name="uni1E53" unicode="&#x1e53;" horiz-adv-x="653" 
d="M327 -12q-78 0 -142.5 37t-102.5 101t-38 145q0 82 38 145.5t102 100t143 36.5q80 0 143.5 -36.5t101 -100t37.5 -145.5t-38 -146t-102 -100.5t-142 -36.5zM327 93q48 0 85 23t58.5 63.5t21.5 91.5t-21.5 91t-58.5 63t-85 23q-47 0 -84.5 -23t-59 -63t-21.5 -91
t21.5 -91.5t59 -63.5t84.5 -23zM267 820l72 165h148l-109 -165h-111zM170 660v95h305v-95h-305z" />
    <glyph glyph-name="uni1E5A" unicode="&#x1e5a;" horiz-adv-x="654" 
d="M77 0v745h271q75 0 132 -27.5t89.5 -80t32.5 -125.5q0 -77 -38.5 -132t-103.5 -80l172 -300h-134l-183 325l77 -45h-197v-280h-118zM195 385h155q41 0 71 16t46.5 44.5t16.5 67.5t-16.5 67.5t-46.5 44t-71 15.5h-155v-255zM262 -215v125h125v-125h-125z" />
    <glyph glyph-name="uni1E5B" unicode="&#x1e5b;" horiz-adv-x="362" 
d="M66 0v541h108v-109l-10 16q18 53 58 76.5t96 23.5h33v-103h-47q-56 0 -90.5 -34.5t-34.5 -98.5v-312h-113zM60 -215v125h125v-125h-125z" />
    <glyph glyph-name="uni1E5E" unicode="&#x1e5e;" horiz-adv-x="654" 
d="M77 0v745h271q75 0 132 -27.5t89.5 -80t32.5 -125.5q0 -77 -38.5 -132t-103.5 -80l172 -300h-134l-183 325l77 -45h-197v-280h-118zM195 385h155q41 0 71 16t46.5 44.5t16.5 67.5t-16.5 67.5t-46.5 44t-71 15.5h-155v-255zM172 -195v95h305v-95h-305z" />
    <glyph glyph-name="uni1E5F" unicode="&#x1e5f;" horiz-adv-x="362" 
d="M66 0v541h108v-109l-10 16q18 53 58 76.5t96 23.5h33v-103h-47q-56 0 -90.5 -34.5t-34.5 -98.5v-312h-113zM-30 -195v95h305v-95h-305z" />
    <glyph glyph-name="uni1E60" unicode="&#x1e60;" horiz-adv-x="647" 
d="M338 -12q-70 0 -130 26.5t-102 72.5t-62 106l100 42q27 -69 79 -106t120 -37q40 0 70 12.5t46.5 35.5t16.5 53q0 41 -23 65t-68 38l-140 44q-84 26 -128 79.5t-44 125.5q0 63 31 110.5t85.5 74.5t124.5 27q67 0 122 -23.5t94.5 -64.5t57.5 -95l-98 -43q-22 59 -68.5 91
t-107.5 32q-37 0 -65 -12.5t-43.5 -36t-15.5 -54.5q0 -36 23 -64t70 -42l130 -41q89 -27 134 -77.5t45 -125.5q0 -62 -32.5 -110t-89.5 -75.5t-132 -27.5zM258 844v125h125v-125h-125z" />
    <glyph glyph-name="uni1E61" unicode="&#x1e61;" horiz-adv-x="512" 
d="M266 -12q-83 0 -145.5 41t-87.5 110l87 41q22 -46 60.5 -73t85.5 -27q40 0 65 18t25 49q0 20 -11 32.5t-27.5 20.5t-33.5 12l-85 24q-70 20 -104.5 60.5t-34.5 94.5q0 49 25 85.5t69 56.5t99 20q74 0 132 -36.5t82 -101.5l-87 -41q-16 39 -50.5 62t-77.5 23
q-37 0 -59 -17.5t-22 -45.5q0 -19 10 -31.5t26 -20t33 -12.5l88 -26q67 -19 103 -59.5t36 -96.5q0 -48 -25.5 -84.5t-70.5 -57t-105 -20.5zM194 640v125h125v-125h-125z" />
    <glyph glyph-name="uni1E62" unicode="&#x1e62;" horiz-adv-x="647" 
d="M338 -12q-70 0 -130 26.5t-102 72.5t-62 106l100 42q27 -69 79 -106t120 -37q40 0 70 12.5t46.5 35.5t16.5 53q0 41 -23 65t-68 38l-140 44q-84 26 -128 79.5t-44 125.5q0 63 31 110.5t85.5 74.5t124.5 27q67 0 122 -23.5t94.5 -64.5t57.5 -95l-98 -43q-22 59 -68.5 91
t-107.5 32q-37 0 -65 -12.5t-43.5 -36t-15.5 -54.5q0 -36 23 -64t70 -42l130 -41q89 -27 134 -77.5t45 -125.5q0 -62 -32.5 -110t-89.5 -75.5t-132 -27.5zM276 -215v125h125v-125h-125z" />
    <glyph glyph-name="uni1E63" unicode="&#x1e63;" horiz-adv-x="512" 
d="M266 -12q-83 0 -145.5 41t-87.5 110l87 41q22 -46 60.5 -73t85.5 -27q40 0 65 18t25 49q0 20 -11 32.5t-27.5 20.5t-33.5 12l-85 24q-70 20 -104.5 60.5t-34.5 94.5q0 49 25 85.5t69 56.5t99 20q74 0 132 -36.5t82 -101.5l-87 -41q-16 39 -50.5 62t-77.5 23
q-37 0 -59 -17.5t-22 -45.5q0 -19 10 -31.5t26 -20t33 -12.5l88 -26q67 -19 103 -59.5t36 -96.5q0 -48 -25.5 -84.5t-70.5 -57t-105 -20.5zM194 -215v125h125v-125h-125z" />
    <glyph glyph-name="uni1E64" unicode="&#x1e64;" horiz-adv-x="647" 
d="M338 -12q-70 0 -130 26.5t-102 72.5t-62 106l100 42q27 -69 79 -106t120 -37q40 0 70 12.5t46.5 35.5t16.5 53q0 41 -23 65t-68 38l-140 44q-84 26 -128 79.5t-44 125.5q0 63 31 110.5t85.5 74.5t124.5 27q67 0 122 -23.5t94.5 -64.5t57.5 -95l-98 -43q-22 59 -68.5 91
t-107.5 32q-37 0 -65 -12.5t-43.5 -36t-15.5 -54.5q0 -36 23 -64t70 -42l130 -41q89 -27 134 -77.5t45 -125.5q0 -62 -32.5 -110t-89.5 -75.5t-132 -27.5zM254 844l72 150h158l-109 -150h-121zM132 949v125h125v-125h-125z" />
    <glyph glyph-name="uni1E65" unicode="&#x1e65;" horiz-adv-x="512" 
d="M266 -12q-83 0 -145.5 41t-87.5 110l87 41q22 -46 60.5 -73t85.5 -27q40 0 65 18t25 49q0 20 -11 32.5t-27.5 20.5t-33.5 12l-85 24q-70 20 -104.5 60.5t-34.5 94.5q0 49 25 85.5t69 56.5t99 20q74 0 132 -36.5t82 -101.5l-87 -41q-16 39 -50.5 62t-77.5 23
q-37 0 -59 -17.5t-22 -45.5q0 -19 10 -31.5t26 -20t33 -12.5l88 -26q67 -19 103 -59.5t36 -96.5q0 -48 -25.5 -84.5t-70.5 -57t-105 -20.5zM190 640l72 150h158l-109 -150h-121zM68 745v125h125v-125h-125z" />
    <glyph glyph-name="uni1E66" unicode="&#x1e66;" horiz-adv-x="647" 
d="M338 -12q-70 0 -130 26.5t-102 72.5t-62 106l100 42q27 -69 79 -106t120 -37q40 0 70 12.5t46.5 35.5t16.5 53q0 41 -23 65t-68 38l-140 44q-84 26 -128 79.5t-44 125.5q0 63 31 110.5t85.5 74.5t124.5 27q67 0 122 -23.5t94.5 -64.5t57.5 -95l-98 -43q-22 59 -68.5 91
t-107.5 32q-37 0 -65 -12.5t-43.5 -36t-15.5 -54.5q0 -36 23 -64t70 -42l130 -41q89 -27 134 -77.5t45 -125.5q0 -62 -32.5 -110t-89.5 -75.5t-132 -27.5zM254 844l-118 150h116l68 -80l69 80h116l-119 -150h-132zM258 1034v125h125v-125h-125z" />
    <glyph glyph-name="uni1E67" unicode="&#x1e67;" horiz-adv-x="512" 
d="M266 -12q-83 0 -145.5 41t-87.5 110l87 41q22 -46 60.5 -73t85.5 -27q40 0 65 18t25 49q0 20 -11 32.5t-27.5 20.5t-33.5 12l-85 24q-70 20 -104.5 60.5t-34.5 94.5q0 49 25 85.5t69 56.5t99 20q74 0 132 -36.5t82 -101.5l-87 -41q-16 39 -50.5 62t-77.5 23
q-37 0 -59 -17.5t-22 -45.5q0 -19 10 -31.5t26 -20t33 -12.5l88 -26q67 -19 103 -59.5t36 -96.5q0 -48 -25.5 -84.5t-70.5 -57t-105 -20.5zM190 640l-118 150h116l68 -80l69 80h116l-119 -150h-132zM194 830v125h125v-125h-125z" />
    <glyph glyph-name="uni1E68" unicode="&#x1e68;" horiz-adv-x="647" 
d="M338 -12q-70 0 -130 26.5t-102 72.5t-62 106l100 42q27 -69 79 -106t120 -37q40 0 70 12.5t46.5 35.5t16.5 53q0 41 -23 65t-68 38l-140 44q-84 26 -128 79.5t-44 125.5q0 63 31 110.5t85.5 74.5t124.5 27q67 0 122 -23.5t94.5 -64.5t57.5 -95l-98 -43q-22 59 -68.5 91
t-107.5 32q-37 0 -65 -12.5t-43.5 -36t-15.5 -54.5q0 -36 23 -64t70 -42l130 -41q89 -27 134 -77.5t45 -125.5q0 -62 -32.5 -110t-89.5 -75.5t-132 -27.5zM276 -215v125h125v-125h-125zM258 844v125h125v-125h-125z" />
    <glyph glyph-name="uni1E69" unicode="&#x1e69;" horiz-adv-x="512" 
d="M266 -12q-83 0 -145.5 41t-87.5 110l87 41q22 -46 60.5 -73t85.5 -27q40 0 65 18t25 49q0 20 -11 32.5t-27.5 20.5t-33.5 12l-85 24q-70 20 -104.5 60.5t-34.5 94.5q0 49 25 85.5t69 56.5t99 20q74 0 132 -36.5t82 -101.5l-87 -41q-16 39 -50.5 62t-77.5 23
q-37 0 -59 -17.5t-22 -45.5q0 -19 10 -31.5t26 -20t33 -12.5l88 -26q67 -19 103 -59.5t36 -96.5q0 -48 -25.5 -84.5t-70.5 -57t-105 -20.5zM194 -215v125h125v-125h-125zM194 640v125h125v-125h-125z" />
    <glyph glyph-name="uni1E6C" unicode="&#x1e6c;" horiz-adv-x="532" 
d="M209 0v640h-198v105h510v-105h-195v-640h-117zM204 -215v125h125v-125h-125z" />
    <glyph glyph-name="uni1E6D" unicode="&#x1e6d;" horiz-adv-x="405" 
d="M300 -6q-85 0 -132 48t-47 135v262h-95v102h15q38 0 59 22t21 60v42h113v-124h123v-102h-123v-257q0 -28 9 -47.5t29 -30t52 -10.5q8 0 18 1t19 2v-97q-14 -2 -31 -4t-30 -2zM230 -215v125h125v-125h-125z" />
    <glyph glyph-name="uni1E6E" unicode="&#x1e6e;" horiz-adv-x="532" 
d="M209 0v640h-198v105h510v-105h-195v-640h-117zM114 -195v95h305v-95h-305z" />
    <glyph glyph-name="uni1E6F" unicode="&#x1e6f;" horiz-adv-x="405" 
d="M300 -6q-85 0 -132 48t-47 135v262h-95v102h15q38 0 59 22t21 60v42h113v-124h123v-102h-123v-257q0 -28 9 -47.5t29 -30t52 -10.5q8 0 18 1t19 2v-97q-14 -2 -31 -4t-30 -2zM140 -195v95h305v-95h-305z" />
    <glyph glyph-name="uni1E78" unicode="&#x1e78;" horiz-adv-x="712" 
d="M356 -12q-83 0 -147.5 35t-101 96t-36.5 139v487h118v-482q0 -49 21.5 -87t59 -59t86.5 -21q50 0 87.5 21t59 59t21.5 87v482h117v-487q0 -78 -36 -139t-100.5 -96t-148.5 -35zM425 844q-27 0 -44.5 9t-30 20t-25 20t-29.5 9t-26 -13t-9 -41h-89q0 74 33 109.5t82 35.5
q28 0 45.5 -8.5t30.5 -20t25.5 -20t28.5 -8.5q19 0 27.5 14t8.5 39h88q0 -70 -33.5 -107.5t-82.5 -37.5zM301 1024l72 165h148l-109 -165h-111z" />
    <glyph glyph-name="uni1E79" unicode="&#x1e79;" 
d="M259 -12q-61 0 -107 27.5t-71.5 77t-25.5 114.5v334h113v-324q0 -37 15 -65t42 -43.5t62 -15.5q36 0 63 16t42.5 45t15.5 68v319h112v-541h-107v106l12 -14q-19 -50 -63 -77t-103 -27zM362 640q-27 0 -44.5 9t-30 20t-25 20t-29.5 9t-26 -13t-9 -41h-89q0 74 33 109.5
t82 35.5q28 0 45.5 -8.5t30.5 -20t25.5 -20t28.5 -8.5q19 0 27.5 14t8.5 39h88q0 -70 -33.5 -107.5t-82.5 -37.5zM238 820l72 165h148l-109 -165h-111z" />
    <glyph glyph-name="uni1E7A" unicode="&#x1e7a;" horiz-adv-x="712" 
d="M356 -12q-83 0 -147.5 35t-101 96t-36.5 139v487h118v-482q0 -49 21.5 -87t59 -59t86.5 -21q50 0 87.5 21t59 59t21.5 87v482h117v-487q0 -78 -36 -139t-100.5 -96t-148.5 -35zM204 864v95h305v-95h-305zM191 1034v125h125v-125h-125zM396 1034v125h125v-125h-125z" />
    <glyph glyph-name="uni1E7B" unicode="&#x1e7b;" 
d="M259 -12q-61 0 -107 27.5t-71.5 77t-25.5 114.5v334h113v-324q0 -37 15 -65t42 -43.5t62 -15.5q36 0 63 16t42.5 45t15.5 68v319h112v-541h-107v106l12 -14q-19 -50 -63 -77t-103 -27zM142 660v95h305v-95h-305zM129 830v125h125v-125h-125zM334 830v125h125v-125h-125z
" />
    <glyph glyph-name="Wgrave" unicode="&#x1e80;" horiz-adv-x="1008" 
d="M216 0l-205 745h125l166 -645h-31l172 645h123l172 -645h-32l167 645h124l-204 -745h-133l-173 635h35l-174 -635h-132zM449 844l-109 165h148l73 -165h-112z" />
    <glyph glyph-name="wgrave" unicode="&#x1e81;" horiz-adv-x="855" 
d="M197 0l-186 541h120l142 -431h-42l145 431h103l144 -431h-42l143 431h120l-187 -541h-102l-146 441h37l-146 -441h-103zM372 640l-109 165h148l73 -165h-112z" />
    <glyph glyph-name="Wacute" unicode="&#x1e82;" horiz-adv-x="1008" 
d="M216 0l-205 745h125l166 -645h-31l172 645h123l172 -645h-32l167 645h124l-204 -745h-133l-173 635h35l-174 -635h-132zM448 844l73 165h148l-109 -165h-112z" />
    <glyph glyph-name="wacute" unicode="&#x1e83;" horiz-adv-x="855" 
d="M197 0l-186 541h120l142 -431h-42l145 431h103l144 -431h-42l143 431h120l-187 -541h-102l-146 441h37l-146 -441h-103zM372 640l73 165h148l-109 -165h-112z" />
    <glyph glyph-name="Wdieresis" unicode="&#x1e84;" horiz-adv-x="1008" 
d="M216 0l-205 745h125l166 -645h-31l172 645h123l172 -645h-32l167 645h124l-204 -745h-133l-173 635h35l-174 -635h-132zM339 844v125h125v-125h-125zM544 844v125h125v-125h-125z" />
    <glyph glyph-name="wdieresis" unicode="&#x1e85;" horiz-adv-x="855" 
d="M197 0l-186 541h120l142 -431h-42l145 431h103l144 -431h-42l143 431h120l-187 -541h-102l-146 441h37l-146 -441h-103zM263 640v125h125v-125h-125zM468 640v125h125v-125h-125z" />
    <glyph glyph-name="uni1E8E" unicode="&#x1e8e;" horiz-adv-x="648" 
d="M266 0v336l-255 409h133l204 -331h-47l203 331h133l-254 -409v-336h-117zM262 844v125h125v-125h-125z" />
    <glyph glyph-name="uni1E8F" unicode="&#x1e8f;" horiz-adv-x="569" 
d="M114 -221q-20 0 -39.5 3.5t-35.5 10.5v97q12 -3 29 -5.5t33 -2.5q47 0 69.5 20.5t40.5 63.5l36 82l-2 -95l-234 588h121l173 -451h-41l172 451h122l-239 -600q-19 -48 -47.5 -84.5t-67 -57t-90.5 -20.5zM222 640v125h125v-125h-125z" />
    <glyph glyph-name="uni1E92" unicode="&#x1e92;" horiz-adv-x="576" 
d="M17 0v90l382 550h-360v105h511v-89l-382 -551h391v-105h-542zM226 -215v125h125v-125h-125z" />
    <glyph glyph-name="uni1E93" unicode="&#x1e93;" horiz-adv-x="471" 
d="M17 0v93l318 385l18 -39h-321v102h421v-92l-314 -386l-18 40h333v-103h-437zM173 -215v125h125v-125h-125z" />
    <glyph glyph-name="uni1E97" unicode="&#x1e97;" horiz-adv-x="405" 
d="M300 -6q-85 0 -132 48t-47 135v262h-95v102h15q38 0 59 22t21 60v42h113v-124h123v-102h-123v-257q0 -28 9 -47.5t29 -30t52 -10.5q8 0 18 1t19 2v-97q-14 -2 -31 -4t-30 -2zM13 764v125h125v-125h-125zM218 764v125h125v-125h-125z" />
    <glyph glyph-name="uni1E9E" unicode="&#x1e9e;" horiz-adv-x="1293" 
d="M338 -12q-70 0 -130 26.5t-102 72.5t-62 106l100 42q27 -69 79 -106t120 -37q40 0 70 12.5t46.5 35.5t16.5 53q0 41 -23 65t-68 38l-140 44q-84 26 -128 79.5t-44 125.5q0 63 31 110.5t85.5 74.5t124.5 27q67 0 122 -23.5t94.5 -64.5t57.5 -95l-98 -43q-22 59 -68.5 91
t-107.5 32q-37 0 -65 -12.5t-43.5 -36t-15.5 -54.5q0 -36 23 -64t70 -42l130 -41q89 -27 134 -77.5t45 -125.5q0 -62 -32.5 -110t-89.5 -75.5t-132 -27.5zM985 -12q-70 0 -130 26.5t-102 72.5t-62 106l100 42q27 -69 79 -106t120 -37q40 0 70 12.5t46.5 35.5t16.5 53
q0 41 -23 65t-68 38l-140 44q-84 26 -128 79.5t-44 125.5q0 63 31 110.5t85.5 74.5t124.5 27q67 0 122 -23.5t94.5 -64.5t57.5 -95l-98 -43q-22 59 -68.5 91t-107.5 32q-37 0 -65 -12.5t-43.5 -36t-15.5 -54.5q0 -36 23 -64t70 -42l130 -41q89 -27 134 -77.5t45 -125.5
q0 -62 -32.5 -110t-89.5 -75.5t-132 -27.5z" />
    <glyph glyph-name="uni1EA0" unicode="&#x1ea0;" horiz-adv-x="692" 
d="M11 0l262 745h146l262 -745h-126l-57 167h-303l-58 -167h-126zM229 272h233l-132 390h33zM284 -215v125h125v-125h-125z" />
    <glyph glyph-name="uni1EA1" unicode="&#x1ea1;" horiz-adv-x="578" 
d="M228 -12q-55 0 -96.5 19.5t-64.5 54t-23 81.5q0 44 19.5 79t60.5 59t103 34l188 31v-89l-166 -29q-45 -8 -66 -28.5t-21 -52.5q0 -31 23.5 -50.5t60.5 -19.5q46 0 80.5 20t53.5 53.5t19 74.5v139q0 40 -29.5 65.5t-78.5 25.5q-45 0 -78.5 -23.5t-49.5 -60.5l-94 47
q15 40 49 70.5t79.5 47.5t96.5 17q64 0 113.5 -24t77 -66.5t27.5 -98.5v-364h-108v98l23 -3q-19 -33 -48.5 -57t-67 -37t-83.5 -13zM227 -215v125h125v-125h-125z" />
    <glyph glyph-name="uni1EA2" unicode="&#x1ea2;" horiz-adv-x="692" 
d="M11 0l262 745h146l262 -745h-126l-57 167h-303l-58 -167h-126zM229 272h233l-132 390h33zM354 804l-48 59q27 12 38 25.5t11 32.5q0 18 -14.5 30t-40.5 12q-12 0 -24 -2t-27 -8l-14 72q19 9 40 13t43 4q63 0 100.5 -30.5t37.5 -81.5q0 -38 -27.5 -71t-74.5 -55z" />
    <glyph glyph-name="uni1EA3" unicode="&#x1ea3;" horiz-adv-x="578" 
d="M228 -12q-55 0 -96.5 19.5t-64.5 54t-23 81.5q0 44 19.5 79t60.5 59t103 34l188 31v-89l-166 -29q-45 -8 -66 -28.5t-21 -52.5q0 -31 23.5 -50.5t60.5 -19.5q46 0 80.5 20t53.5 53.5t19 74.5v139q0 40 -29.5 65.5t-78.5 25.5q-45 0 -78.5 -23.5t-49.5 -60.5l-94 47
q15 40 49 70.5t79.5 47.5t96.5 17q64 0 113.5 -24t77 -66.5t27.5 -98.5v-364h-108v98l23 -3q-19 -33 -48.5 -57t-67 -37t-83.5 -13zM303 600l-48 59q27 12 38 25.5t11 32.5q0 18 -14.5 30t-40.5 12q-12 0 -24 -2t-27 -8l-14 72q19 9 40 13t43 4q63 0 100.5 -30.5t37.5 -81.5
q0 -38 -27.5 -71t-74.5 -55z" />
    <glyph glyph-name="uni1EA4" unicode="&#x1ea4;" horiz-adv-x="692" 
d="M11 0l262 745h146l262 -745h-126l-57 167h-303l-58 -167h-126zM229 272h233l-132 390h33zM162 844l118 150h132l119 -150h-116l-69 81l-68 -81h-116zM489 919l52 140h133l-89 -140h-96z" />
    <glyph glyph-name="uni1EA5" unicode="&#x1ea5;" horiz-adv-x="578" 
d="M228 -12q-55 0 -96.5 19.5t-64.5 54t-23 81.5q0 44 19.5 79t60.5 59t103 34l188 31v-89l-166 -29q-45 -8 -66 -28.5t-21 -52.5q0 -31 23.5 -50.5t60.5 -19.5q46 0 80.5 20t53.5 53.5t19 74.5v139q0 40 -29.5 65.5t-78.5 25.5q-45 0 -78.5 -23.5t-49.5 -60.5l-94 47
q15 40 49 70.5t79.5 47.5t96.5 17q64 0 113.5 -24t77 -66.5t27.5 -98.5v-364h-108v98l23 -3q-19 -33 -48.5 -57t-67 -37t-83.5 -13zM111 640l118 150h132l119 -150h-116l-69 81l-68 -81h-116zM438 715l52 140h133l-89 -140h-96z" />
    <glyph glyph-name="uni1EA6" unicode="&#x1ea6;" horiz-adv-x="692" 
d="M11 0l262 745h146l262 -745h-126l-57 167h-303l-58 -167h-126zM229 272h233l-132 390h33zM162 844l118 150h132l119 -150h-116l-69 81l-68 -81h-116zM547 919l-89 140h133l52 -140h-96z" />
    <glyph glyph-name="uni1EA7" unicode="&#x1ea7;" horiz-adv-x="578" 
d="M228 -12q-55 0 -96.5 19.5t-64.5 54t-23 81.5q0 44 19.5 79t60.5 59t103 34l188 31v-89l-166 -29q-45 -8 -66 -28.5t-21 -52.5q0 -31 23.5 -50.5t60.5 -19.5q46 0 80.5 20t53.5 53.5t19 74.5v139q0 40 -29.5 65.5t-78.5 25.5q-45 0 -78.5 -23.5t-49.5 -60.5l-94 47
q15 40 49 70.5t79.5 47.5t96.5 17q64 0 113.5 -24t77 -66.5t27.5 -98.5v-364h-108v98l23 -3q-19 -33 -48.5 -57t-67 -37t-83.5 -13zM111 640l118 150h132l119 -150h-116l-69 81l-68 -81h-116zM496 715l-89 140h133l52 -140h-96z" />
    <glyph glyph-name="uni1EA8" unicode="&#x1ea8;" horiz-adv-x="692" 
d="M11 0l262 745h146l262 -745h-126l-57 167h-303l-58 -167h-126zM229 272h233l-132 390h33zM162 844l118 150h132l119 -150h-116l-69 81l-68 -81h-116zM524 914l-45 55q26 11 36.5 24.5t10.5 31.5q0 17 -14 28t-38 11q-12 0 -23.5 -1.5t-25.5 -7.5l-13 68q18 9 38 12.5
t41 3.5q59 0 94.5 -29t35.5 -77q0 -37 -26.5 -68t-70.5 -51z" />
    <glyph glyph-name="uni1EA9" unicode="&#x1ea9;" horiz-adv-x="578" 
d="M228 -12q-55 0 -96.5 19.5t-64.5 54t-23 81.5q0 44 19.5 79t60.5 59t103 34l188 31v-89l-166 -29q-45 -8 -66 -28.5t-21 -52.5q0 -31 23.5 -50.5t60.5 -19.5q46 0 80.5 20t53.5 53.5t19 74.5v139q0 40 -29.5 65.5t-78.5 25.5q-45 0 -78.5 -23.5t-49.5 -60.5l-94 47
q15 40 49 70.5t79.5 47.5t96.5 17q64 0 113.5 -24t77 -66.5t27.5 -98.5v-364h-108v98l23 -3q-19 -33 -48.5 -57t-67 -37t-83.5 -13zM111 640l118 150h132l119 -150h-116l-69 81l-68 -81h-116zM473 710l-45 55q26 11 36.5 24.5t10.5 31.5q0 17 -14 28t-38 11
q-12 0 -23.5 -1.5t-25.5 -7.5l-13 68q18 9 38 12.5t41 3.5q59 0 94.5 -29t35.5 -77q0 -37 -26.5 -68t-70.5 -51z" />
    <glyph glyph-name="uni1EAA" unicode="&#x1eaa;" horiz-adv-x="692" 
d="M11 0l262 745h146l262 -745h-126l-57 167h-303l-58 -167h-126zM229 272h233l-132 390h33zM163 844l118 150h131l119 -150h-116l-68 81l-68 -81h-116zM406 1056q-23 0 -37.5 8.5t-25.5 20t-21 20t-24 8.5q-13 0 -20 -13t-7 -40h-87q0 49 14 81t37.5 47.5t50.5 15.5
q23 0 38.5 -8.5t26.5 -20t21.5 -20t22.5 -8.5q16 0 22 14t6 39h86q0 -69 -30.5 -106.5t-72.5 -37.5z" />
    <glyph glyph-name="uni1EAB" unicode="&#x1eab;" horiz-adv-x="578" 
d="M228 -12q-55 0 -96.5 19.5t-64.5 54t-23 81.5q0 44 19.5 79t60.5 59t103 34l188 31v-89l-166 -29q-45 -8 -66 -28.5t-21 -52.5q0 -31 23.5 -50.5t60.5 -19.5q46 0 80.5 20t53.5 53.5t19 74.5v139q0 40 -29.5 65.5t-78.5 25.5q-45 0 -78.5 -23.5t-49.5 -60.5l-94 47
q15 40 49 70.5t79.5 47.5t96.5 17q64 0 113.5 -24t77 -66.5t27.5 -98.5v-364h-108v98l23 -3q-19 -33 -48.5 -57t-67 -37t-83.5 -13zM111 640l118 150h131l119 -150h-116l-68 81l-68 -81h-116zM354 852q-23 0 -37.5 8.5t-25.5 20t-21 20t-24 8.5q-13 0 -20 -13t-7 -40h-87
q0 49 14 81t37.5 47.5t50.5 15.5q23 0 38.5 -8.5t26.5 -20t21.5 -20t22.5 -8.5q16 0 22 14t6 39h86q0 -69 -30.5 -106.5t-72.5 -37.5z" />
    <glyph glyph-name="uni1EAC" unicode="&#x1eac;" horiz-adv-x="692" 
d="M11 0l262 745h146l262 -745h-126l-57 167h-303l-58 -167h-126zM229 272h233l-132 390h33zM284 -215v125h125v-125h-125zM162 844l118 160h132l119 -160h-116l-69 91l-68 -91h-116z" />
    <glyph glyph-name="uni1EAD" unicode="&#x1ead;" horiz-adv-x="578" 
d="M228 -12q-55 0 -96.5 19.5t-64.5 54t-23 81.5q0 44 19.5 79t60.5 59t103 34l188 31v-89l-166 -29q-45 -8 -66 -28.5t-21 -52.5q0 -31 23.5 -50.5t60.5 -19.5q46 0 80.5 20t53.5 53.5t19 74.5v139q0 40 -29.5 65.5t-78.5 25.5q-45 0 -78.5 -23.5t-49.5 -60.5l-94 47
q15 40 49 70.5t79.5 47.5t96.5 17q64 0 113.5 -24t77 -66.5t27.5 -98.5v-364h-108v98l23 -3q-19 -33 -48.5 -57t-67 -37t-83.5 -13zM227 -215v125h125v-125h-125zM111 640l118 160h132l119 -160h-116l-69 91l-68 -91h-116z" />
    <glyph glyph-name="uni1EAE" unicode="&#x1eae;" horiz-adv-x="692" 
d="M11 0l262 745h146l262 -745h-126l-57 167h-303l-58 -167h-126zM229 272h233l-132 390h33zM347 847q-63 0 -104 21t-61.5 55.5t-21.5 73.5h110q1 -29 21 -45.5t56 -16.5t56 16.5t21 45.5h109q-1 -40 -21.5 -74.5t-61 -55t-103.5 -20.5zM291 1027l72 165h148l-109 -165
h-111z" />
    <glyph glyph-name="uni1EAF" unicode="&#x1eaf;" horiz-adv-x="578" 
d="M228 -12q-55 0 -96.5 19.5t-64.5 54t-23 81.5q0 44 19.5 79t60.5 59t103 34l188 31v-89l-166 -29q-45 -8 -66 -28.5t-21 -52.5q0 -31 23.5 -50.5t60.5 -19.5q46 0 80.5 20t53.5 53.5t19 74.5v139q0 40 -29.5 65.5t-78.5 25.5q-45 0 -78.5 -23.5t-49.5 -60.5l-94 47
q15 40 49 70.5t79.5 47.5t96.5 17q64 0 113.5 -24t77 -66.5t27.5 -98.5v-364h-108v98l23 -3q-19 -33 -48.5 -57t-67 -37t-83.5 -13zM295 643q-63 0 -104 21t-61.5 55.5t-21.5 73.5h110q1 -29 21 -45.5t56 -16.5t56 16.5t21 45.5h109q-1 -40 -21.5 -74.5t-61 -55
t-103.5 -20.5zM239 823l72 165h148l-109 -165h-111z" />
    <glyph glyph-name="uni1EB0" unicode="&#x1eb0;" horiz-adv-x="692" 
d="M11 0l262 745h146l262 -745h-126l-57 167h-303l-58 -167h-126zM229 272h233l-132 390h33zM346 847q-62 0 -103 20.5t-61.5 55t-21.5 74.5h109q1 -29 21.5 -45.5t55.5 -16.5q36 0 56 16.5t21 45.5h110q-1 -39 -21.5 -73.5t-61.5 -55.5t-104 -21zM291 1027l-109 165h148
l72 -165h-111z" />
    <glyph glyph-name="uni1EB1" unicode="&#x1eb1;" horiz-adv-x="578" 
d="M228 -12q-55 0 -96.5 19.5t-64.5 54t-23 81.5q0 44 19.5 79t60.5 59t103 34l188 31v-89l-166 -29q-45 -8 -66 -28.5t-21 -52.5q0 -31 23.5 -50.5t60.5 -19.5q46 0 80.5 20t53.5 53.5t19 74.5v139q0 40 -29.5 65.5t-78.5 25.5q-45 0 -78.5 -23.5t-49.5 -60.5l-94 47
q15 40 49 70.5t79.5 47.5t96.5 17q64 0 113.5 -24t77 -66.5t27.5 -98.5v-364h-108v98l23 -3q-19 -33 -48.5 -57t-67 -37t-83.5 -13zM295 643q-62 0 -103 20.5t-61.5 55t-21.5 74.5h109q1 -29 21.5 -45.5t55.5 -16.5q36 0 56 16.5t21 45.5h110q-1 -39 -21.5 -73.5
t-61.5 -55.5t-104 -21zM240 823l-109 165h148l72 -165h-111z" />
    <glyph glyph-name="uni1EB2" unicode="&#x1eb2;" horiz-adv-x="692" 
d="M11 0l262 745h146l262 -745h-126l-57 167h-303l-58 -167h-126zM229 272h233l-132 390h33zM346 847q-62 0 -103 21t-61.5 55.5t-21.5 73.5h110q1 -29 21 -45.5t55 -16.5q36 0 56 16.5t21 45.5h110q-2 -40 -22.5 -74t-61 -55t-103.5 -21zM355 1004l-49 59q27 12 38.5 25.5
t11.5 32.5q0 18 -15 30t-40 12q-12 0 -24.5 -2t-26.5 -8l-14 72q18 9 39.5 13t43.5 4q62 0 100 -30.5t38 -81.5q0 -38 -27.5 -71t-74.5 -55z" />
    <glyph glyph-name="uni1EB3" unicode="&#x1eb3;" horiz-adv-x="578" 
d="M228 -12q-55 0 -96.5 19.5t-64.5 54t-23 81.5q0 44 19.5 79t60.5 59t103 34l188 31v-89l-166 -29q-45 -8 -66 -28.5t-21 -52.5q0 -31 23.5 -50.5t60.5 -19.5q46 0 80.5 20t53.5 53.5t19 74.5v139q0 40 -29.5 65.5t-78.5 25.5q-45 0 -78.5 -23.5t-49.5 -60.5l-94 47
q15 40 49 70.5t79.5 47.5t96.5 17q64 0 113.5 -24t77 -66.5t27.5 -98.5v-364h-108v98l23 -3q-19 -33 -48.5 -57t-67 -37t-83.5 -13zM294 643q-62 0 -103 21t-61.5 55.5t-21.5 73.5h110q1 -29 21 -45.5t55 -16.5q36 0 56 16.5t21 45.5h110q-2 -40 -22.5 -74t-61 -55
t-103.5 -21zM303 800l-49 59q27 12 38.5 25.5t11.5 32.5q0 18 -15 30t-40 12q-12 0 -24.5 -2t-26.5 -8l-14 72q18 9 39.5 13t43.5 4q62 0 100 -30.5t38 -81.5q0 -38 -27.5 -71t-74.5 -55z" />
    <glyph glyph-name="uni1EB4" unicode="&#x1eb4;" horiz-adv-x="692" 
d="M11 0l262 745h146l262 -745h-126l-57 167h-303l-58 -167h-126zM229 272h233l-132 390h33zM405 1056q-23 0 -37.5 8.5t-25.5 20t-21 20t-24 8.5q-13 0 -20 -13t-7 -40h-87q0 49 14 81t37.5 47.5t50.5 15.5q23 0 38.5 -8.5t26.5 -20t21.5 -20t22.5 -8.5q16 0 22 14t6 39h86
q0 -69 -30.5 -106.5t-72.5 -37.5zM346 844q-62 0 -103 21t-61.5 55.5t-21.5 73.5h110q1 -29 21 -45.5t55 -16.5q36 0 56 16.5t21 45.5h110q-2 -40 -22.5 -74t-61 -55t-103.5 -21z" />
    <glyph glyph-name="uni1EB5" unicode="&#x1eb5;" horiz-adv-x="578" 
d="M228 -12q-55 0 -96.5 19.5t-64.5 54t-23 81.5q0 44 19.5 79t60.5 59t103 34l188 31v-89l-166 -29q-45 -8 -66 -28.5t-21 -52.5q0 -31 23.5 -50.5t60.5 -19.5q46 0 80.5 20t53.5 53.5t19 74.5v139q0 40 -29.5 65.5t-78.5 25.5q-45 0 -78.5 -23.5t-49.5 -60.5l-94 47
q15 40 49 70.5t79.5 47.5t96.5 17q64 0 113.5 -24t77 -66.5t27.5 -98.5v-364h-108v98l23 -3q-19 -33 -48.5 -57t-67 -37t-83.5 -13zM353 852q-23 0 -37.5 8.5t-25.5 20t-21 20t-24 8.5q-13 0 -20 -13t-7 -40h-87q0 49 14 81t37.5 47.5t50.5 15.5q23 0 38.5 -8.5t26.5 -20
t21.5 -20t22.5 -8.5q16 0 22 14t6 39h86q0 -69 -30.5 -106.5t-72.5 -37.5zM294 640q-62 0 -103 21t-61.5 55.5t-21.5 73.5h110q1 -29 21 -45.5t55 -16.5q36 0 56 16.5t21 45.5h110q-2 -40 -22.5 -74t-61 -55t-103.5 -21z" />
    <glyph glyph-name="uni1EB6" unicode="&#x1eb6;" horiz-adv-x="692" 
d="M11 0l262 745h146l262 -745h-126l-57 167h-303l-58 -167h-126zM229 272h233l-132 390h33zM284 -215v125h125v-125h-125zM347 847q-63 0 -104 22.5t-61.5 59t-21.5 78.5h110q1 -34 21 -53t56 -19t56 19t21 53h109q-1 -43 -21.5 -79.5t-61 -58.5t-103.5 -22z" />
    <glyph glyph-name="uni1EB7" unicode="&#x1eb7;" horiz-adv-x="578" 
d="M228 -12q-55 0 -96.5 19.5t-64.5 54t-23 81.5q0 44 19.5 79t60.5 59t103 34l188 31v-89l-166 -29q-45 -8 -66 -28.5t-21 -52.5q0 -31 23.5 -50.5t60.5 -19.5q46 0 80.5 20t53.5 53.5t19 74.5v139q0 40 -29.5 65.5t-78.5 25.5q-45 0 -78.5 -23.5t-49.5 -60.5l-94 47
q15 40 49 70.5t79.5 47.5t96.5 17q64 0 113.5 -24t77 -66.5t27.5 -98.5v-364h-108v98l23 -3q-19 -33 -48.5 -57t-67 -37t-83.5 -13zM227 -215v125h125v-125h-125zM295 643q-63 0 -104 22.5t-61.5 59t-21.5 78.5h110q1 -34 21 -53t56 -19t56 19t21 53h109q-1 -43 -21.5 -79.5
t-61 -58.5t-103.5 -22z" />
    <glyph glyph-name="uni1EB8" unicode="&#x1eb8;" horiz-adv-x="601" 
d="M77 0v745h491v-105h-373v-214h353v-105h-353v-216h373v-105h-491zM260 -215v125h125v-125h-125z" />
    <glyph glyph-name="uni1EB9" unicode="&#x1eb9;" horiz-adv-x="613" 
d="M320 -12q-81 0 -143.5 37.5t-97.5 102t-35 144.5q0 82 35.5 145t95.5 99.5t136 36.5q61 0 109 -21t81 -57.5t50.5 -83.5t17.5 -100q0 -13 -1 -27t-4 -26h-431v90h367l-54 -41q10 49 -6.5 87.5t-50 61t-78.5 22.5t-80 -22.5t-54 -64t-15 -100.5q-5 -55 15.5 -96t58 -64
t85.5 -23q49 0 83.5 22t54.5 57l92 -45q-16 -38 -49.5 -68.5t-80 -48t-101.5 -17.5zM245 -215v125h125v-125h-125z" />
    <glyph glyph-name="uni1EBA" unicode="&#x1eba;" horiz-adv-x="601" 
d="M77 0v745h491v-105h-373v-214h353v-105h-353v-216h373v-105h-491zM331 804l-48 59q27 12 38 25.5t11 32.5q0 18 -14.5 30t-40.5 12q-12 0 -24 -2t-27 -8l-14 72q19 9 40 13t43 4q63 0 100.5 -30.5t37.5 -81.5q0 -38 -27.5 -71t-74.5 -55z" />
    <glyph glyph-name="uni1EBB" unicode="&#x1ebb;" horiz-adv-x="613" 
d="M320 -12q-81 0 -143.5 37.5t-97.5 102t-35 144.5q0 82 35.5 145t95.5 99.5t136 36.5q61 0 109 -21t81 -57.5t50.5 -83.5t17.5 -100q0 -13 -1 -27t-4 -26h-431v90h367l-54 -41q10 49 -6.5 87.5t-50 61t-78.5 22.5t-80 -22.5t-54 -64t-15 -100.5q-5 -55 15.5 -96t58 -64
t85.5 -23q49 0 83.5 22t54.5 57l92 -45q-16 -38 -49.5 -68.5t-80 -48t-101.5 -17.5zM315 600l-48 59q27 12 38 25.5t11 32.5q0 18 -14.5 30t-40.5 12q-12 0 -24 -2t-27 -8l-14 72q19 9 40 13t43 4q63 0 100.5 -30.5t37.5 -81.5q0 -38 -27.5 -71t-74.5 -55z" />
    <glyph glyph-name="uni1EBC" unicode="&#x1ebc;" horiz-adv-x="601" 
d="M77 0v745h491v-105h-373v-214h353v-105h-353v-216h373v-105h-491zM391 844q-27 0 -44.5 9t-30 20t-25 20t-29.5 9t-26 -13t-9 -41h-89q0 74 33 109.5t82 35.5q28 0 45.5 -8.5t30.5 -20t25.5 -20t28.5 -8.5q19 0 27.5 14t8.5 39h88q0 -70 -33.5 -107.5t-82.5 -37.5z" />
    <glyph glyph-name="uni1EBD" unicode="&#x1ebd;" horiz-adv-x="613" 
d="M320 -12q-81 0 -143.5 37.5t-97.5 102t-35 144.5q0 82 35.5 145t95.5 99.5t136 36.5q61 0 109 -21t81 -57.5t50.5 -83.5t17.5 -100q0 -13 -1 -27t-4 -26h-431v90h367l-54 -41q10 49 -6.5 87.5t-50 61t-78.5 22.5t-80 -22.5t-54 -64t-15 -100.5q-5 -55 15.5 -96t58 -64
t85.5 -23q49 0 83.5 22t54.5 57l92 -45q-16 -38 -49.5 -68.5t-80 -48t-101.5 -17.5zM376 640q-27 0 -44.5 9t-30 20t-25 20t-29.5 9t-26 -13t-9 -41h-89q0 74 33 109.5t82 35.5q28 0 45.5 -8.5t30.5 -20t25.5 -20t28.5 -8.5q19 0 27.5 14t8.5 39h88q0 -70 -33.5 -107.5
t-82.5 -37.5z" />
    <glyph glyph-name="uni1EBE" unicode="&#x1ebe;" horiz-adv-x="601" 
d="M77 0v745h491v-105h-373v-214h353v-105h-353v-216h373v-105h-491zM139 844l118 150h132l119 -150h-116l-69 81l-68 -81h-116zM466 919l52 140h133l-89 -140h-96z" />
    <glyph glyph-name="uni1EBF" unicode="&#x1ebf;" horiz-adv-x="613" 
d="M320 -12q-81 0 -143.5 37.5t-97.5 102t-35 144.5q0 82 35.5 145t95.5 99.5t136 36.5q61 0 109 -21t81 -57.5t50.5 -83.5t17.5 -100q0 -13 -1 -27t-4 -26h-431v90h367l-54 -41q10 49 -6.5 87.5t-50 61t-78.5 22.5t-80 -22.5t-54 -64t-15 -100.5q-5 -55 15.5 -96t58 -64
t85.5 -23q49 0 83.5 22t54.5 57l92 -45q-16 -38 -49.5 -68.5t-80 -48t-101.5 -17.5zM123 640l118 150h132l119 -150h-116l-69 81l-68 -81h-116zM450 715l52 140h133l-89 -140h-96z" />
    <glyph glyph-name="uni1EC0" unicode="&#x1ec0;" horiz-adv-x="601" 
d="M77 0v745h491v-105h-373v-214h353v-105h-353v-216h373v-105h-491zM139 844l118 150h132l119 -150h-116l-69 81l-68 -81h-116zM524 919l-89 140h133l52 -140h-96z" />
    <glyph glyph-name="uni1EC1" unicode="&#x1ec1;" horiz-adv-x="613" 
d="M320 -12q-81 0 -143.5 37.5t-97.5 102t-35 144.5q0 82 35.5 145t95.5 99.5t136 36.5q61 0 109 -21t81 -57.5t50.5 -83.5t17.5 -100q0 -13 -1 -27t-4 -26h-431v90h367l-54 -41q10 49 -6.5 87.5t-50 61t-78.5 22.5t-80 -22.5t-54 -64t-15 -100.5q-5 -55 15.5 -96t58 -64
t85.5 -23q49 0 83.5 22t54.5 57l92 -45q-16 -38 -49.5 -68.5t-80 -48t-101.5 -17.5zM123 640l118 150h132l119 -150h-116l-69 81l-68 -81h-116zM508 715l-89 140h133l52 -140h-96z" />
    <glyph glyph-name="uni1EC2" unicode="&#x1ec2;" horiz-adv-x="601" 
d="M77 0v745h491v-105h-373v-214h353v-105h-353v-216h373v-105h-491zM139 844l118 150h132l119 -150h-116l-69 81l-68 -81h-116zM501 914l-45 55q26 11 36.5 24.5t10.5 31.5q0 17 -14 28t-38 11q-12 0 -23.5 -1.5t-25.5 -7.5l-13 68q18 9 38 12.5t41 3.5q59 0 94.5 -29
t35.5 -77q0 -37 -26.5 -68t-70.5 -51z" />
    <glyph glyph-name="uni1EC3" unicode="&#x1ec3;" horiz-adv-x="613" 
d="M320 -12q-81 0 -143.5 37.5t-97.5 102t-35 144.5q0 82 35.5 145t95.5 99.5t136 36.5q61 0 109 -21t81 -57.5t50.5 -83.5t17.5 -100q0 -13 -1 -27t-4 -26h-431v90h367l-54 -41q10 49 -6.5 87.5t-50 61t-78.5 22.5t-80 -22.5t-54 -64t-15 -100.5q-5 -55 15.5 -96t58 -64
t85.5 -23q49 0 83.5 22t54.5 57l92 -45q-16 -38 -49.5 -68.5t-80 -48t-101.5 -17.5zM123 640l118 150h132l119 -150h-116l-69 81l-68 -81h-116zM485 710l-45 55q26 11 36.5 24.5t10.5 31.5q0 17 -14 28t-38 11q-12 0 -23.5 -1.5t-25.5 -7.5l-13 68q18 9 38 12.5t41 3.5
q59 0 94.5 -29t35.5 -77q0 -37 -26.5 -68t-70.5 -51z" />
    <glyph glyph-name="uni1EC4" unicode="&#x1ec4;" horiz-adv-x="601" 
d="M77 0v745h491v-105h-373v-214h353v-105h-353v-216h373v-105h-491zM139 844l118 150h131l119 -150h-116l-68 81l-68 -81h-116zM382 1056q-23 0 -37.5 8.5t-25.5 20t-21 20t-24 8.5q-13 0 -20 -13t-7 -40h-87q0 49 14 81t37.5 47.5t50.5 15.5q23 0 38.5 -8.5t26.5 -20
t21.5 -20t22.5 -8.5q16 0 22 14t6 39h86q0 -69 -30.5 -106.5t-72.5 -37.5z" />
    <glyph glyph-name="uni1EC5" unicode="&#x1ec5;" horiz-adv-x="613" 
d="M320 -12q-81 0 -143.5 37.5t-97.5 102t-35 144.5q0 82 35.5 145t95.5 99.5t136 36.5q61 0 109 -21t81 -57.5t50.5 -83.5t17.5 -100q0 -13 -1 -27t-4 -26h-431v90h367l-54 -41q10 49 -6.5 87.5t-50 61t-78.5 22.5t-80 -22.5t-54 -64t-15 -100.5q-5 -55 15.5 -96t58 -64
t85.5 -23q49 0 83.5 22t54.5 57l92 -45q-16 -38 -49.5 -68.5t-80 -48t-101.5 -17.5zM124 640l118 150h131l119 -150h-116l-68 81l-68 -81h-116zM367 852q-23 0 -37.5 8.5t-25.5 20t-21 20t-24 8.5q-13 0 -20 -13t-7 -40h-87q0 49 14 81t37.5 47.5t50.5 15.5q23 0 38.5 -8.5
t26.5 -20t21.5 -20t22.5 -8.5q16 0 22 14t6 39h86q0 -69 -30.5 -106.5t-72.5 -37.5z" />
    <glyph glyph-name="uni1EC6" unicode="&#x1ec6;" horiz-adv-x="601" 
d="M77 0v745h491v-105h-373v-214h353v-105h-353v-216h373v-105h-491zM260 -215v125h125v-125h-125zM139 844l118 160h132l119 -160h-116l-69 91l-68 -91h-116z" />
    <glyph glyph-name="uni1EC7" unicode="&#x1ec7;" horiz-adv-x="613" 
d="M320 -12q-81 0 -143.5 37.5t-97.5 102t-35 144.5q0 82 35.5 145t95.5 99.5t136 36.5q61 0 109 -21t81 -57.5t50.5 -83.5t17.5 -100q0 -13 -1 -27t-4 -26h-431v90h367l-54 -41q10 49 -6.5 87.5t-50 61t-78.5 22.5t-80 -22.5t-54 -64t-15 -100.5q-5 -55 15.5 -96t58 -64
t85.5 -23q49 0 83.5 22t54.5 57l92 -45q-16 -38 -49.5 -68.5t-80 -48t-101.5 -17.5zM245 -215v125h125v-125h-125zM123 640l118 160h132l119 -160h-116l-69 91l-68 -91h-116z" />
    <glyph glyph-name="uni1EC8" unicode="&#x1ec8;" horiz-adv-x="272" 
d="M77 0v745h118v-745h-118zM144 804l-48 59q27 12 38 25.5t11 32.5q0 18 -14.5 30t-40.5 12q-12 0 -24 -2t-27 -8l-14 72q19 9 40 13t43 4q63 0 100.5 -30.5t37.5 -81.5q0 -38 -27.5 -71t-74.5 -55z" />
    <glyph glyph-name="uni1EC9" unicode="&#x1ec9;" horiz-adv-x="219" 
d="M53 0v541h113v-541h-113zM117 600l-48 59q27 12 38 25.5t11 32.5q0 18 -14.5 30t-40.5 12q-12 0 -24 -2t-27 -8l-14 72q19 9 40 13t43 4q63 0 100.5 -30.5t37.5 -81.5q0 -38 -27.5 -71t-74.5 -55z" />
    <glyph glyph-name="uni1ECA" unicode="&#x1eca;" horiz-adv-x="272" 
d="M77 0v745h118v-745h-118zM74 -215v125h125v-125h-125z" />
    <glyph glyph-name="uni1ECB" unicode="&#x1ecb;" horiz-adv-x="245" 
d="M66 0v541h113v-541h-113zM66 615v130h113v-130h-113zM60 -215v125h125v-125h-125z" />
    <glyph glyph-name="uni1ECC" unicode="&#x1ecc;" horiz-adv-x="878" 
d="M439 -12q-81 0 -150.5 29t-122 81t-82 122t-29.5 153t29.5 153.5t81.5 122t122 80t151 28.5q82 0 151.5 -28.5t122 -80.5t81.5 -122t29 -153t-29.5 -153t-81.5 -122t-122 -81t-151 -29zM439 96q58 0 106.5 21t84.5 58.5t56 88t20 109.5t-20 109t-56 88t-84.5 59
t-106.5 21t-106.5 -21t-84.5 -59t-55.5 -88t-19.5 -109t19.5 -109.5t55.5 -88t85 -58.5t106 -21zM377 -215v125h125v-125h-125z" />
    <glyph glyph-name="uni1ECD" unicode="&#x1ecd;" horiz-adv-x="653" 
d="M327 -12q-78 0 -142.5 37t-102.5 101t-38 145q0 82 38 145.5t102 100t143 36.5q80 0 143.5 -36.5t101 -100t37.5 -145.5t-38 -146t-102 -100.5t-142 -36.5zM327 93q48 0 85 23t58.5 63.5t21.5 91.5t-21.5 91t-58.5 63t-85 23q-47 0 -84.5 -23t-59 -63t-21.5 -91
t21.5 -91.5t59 -63.5t84.5 -23zM265 -215v125h125v-125h-125z" />
    <glyph glyph-name="uni1ECE" unicode="&#x1ece;" horiz-adv-x="878" 
d="M439 -12q-81 0 -150.5 29t-122 81t-82 122t-29.5 153t29.5 153.5t81.5 122t122 80t151 28.5q82 0 151.5 -28.5t122 -80.5t81.5 -122t29 -153t-29.5 -153t-81.5 -122t-122 -81t-151 -29zM439 96q58 0 106.5 21t84.5 58.5t56 88t20 109.5t-20 109t-56 88t-84.5 59
t-106.5 21t-106.5 -21t-84.5 -59t-55.5 -88t-19.5 -109t19.5 -109.5t55.5 -88t85 -58.5t106 -21zM447 804l-48 59q27 12 38 25.5t11 32.5q0 18 -14.5 30t-40.5 12q-12 0 -24 -2t-27 -8l-14 72q19 9 40 13t43 4q63 0 100.5 -30.5t37.5 -81.5q0 -38 -27.5 -71t-74.5 -55z" />
    <glyph glyph-name="uni1ECF" unicode="&#x1ecf;" horiz-adv-x="653" 
d="M327 -12q-78 0 -142.5 37t-102.5 101t-38 145q0 82 38 145.5t102 100t143 36.5q80 0 143.5 -36.5t101 -100t37.5 -145.5t-38 -146t-102 -100.5t-142 -36.5zM327 93q48 0 85 23t58.5 63.5t21.5 91.5t-21.5 91t-58.5 63t-85 23q-47 0 -84.5 -23t-59 -63t-21.5 -91
t21.5 -91.5t59 -63.5t84.5 -23zM335 600l-48 59q27 12 38 25.5t11 32.5q0 18 -14.5 30t-40.5 12q-12 0 -24 -2t-27 -8l-14 72q19 9 40 13t43 4q63 0 100.5 -30.5t37.5 -81.5q0 -38 -27.5 -71t-74.5 -55z" />
    <glyph glyph-name="uni1ED0" unicode="&#x1ed0;" horiz-adv-x="878" 
d="M439 -12q-81 0 -150.5 29t-122 81t-82 122t-29.5 153t29.5 153.5t81.5 122t122 80t151 28.5q82 0 151.5 -28.5t122 -80.5t81.5 -122t29 -153t-29.5 -153t-81.5 -122t-122 -81t-151 -29zM439 96q58 0 106.5 21t84.5 58.5t56 88t20 109.5t-20 109t-56 88t-84.5 59
t-106.5 21t-106.5 -21t-84.5 -59t-55.5 -88t-19.5 -109t19.5 -109.5t55.5 -88t85 -58.5t106 -21zM255 844l118 150h132l119 -150h-116l-69 81l-68 -81h-116zM582 919l52 140h133l-89 -140h-96z" />
    <glyph glyph-name="uni1ED1" unicode="&#x1ed1;" horiz-adv-x="653" 
d="M327 -12q-78 0 -142.5 37t-102.5 101t-38 145q0 82 38 145.5t102 100t143 36.5q80 0 143.5 -36.5t101 -100t37.5 -145.5t-38 -146t-102 -100.5t-142 -36.5zM327 93q48 0 85 23t58.5 63.5t21.5 91.5t-21.5 91t-58.5 63t-85 23q-47 0 -84.5 -23t-59 -63t-21.5 -91
t21.5 -91.5t59 -63.5t84.5 -23zM143 640l118 150h132l119 -150h-116l-69 81l-68 -81h-116zM470 715l52 140h133l-89 -140h-96z" />
    <glyph glyph-name="uni1ED2" unicode="&#x1ed2;" horiz-adv-x="878" 
d="M439 -12q-81 0 -150.5 29t-122 81t-82 122t-29.5 153t29.5 153.5t81.5 122t122 80t151 28.5q82 0 151.5 -28.5t122 -80.5t81.5 -122t29 -153t-29.5 -153t-81.5 -122t-122 -81t-151 -29zM439 96q58 0 106.5 21t84.5 58.5t56 88t20 109.5t-20 109t-56 88t-84.5 59
t-106.5 21t-106.5 -21t-84.5 -59t-55.5 -88t-19.5 -109t19.5 -109.5t55.5 -88t85 -58.5t106 -21zM255 844l118 150h132l119 -150h-116l-69 81l-68 -81h-116zM640 919l-89 140h133l52 -140h-96z" />
    <glyph glyph-name="uni1ED3" unicode="&#x1ed3;" horiz-adv-x="653" 
d="M327 -12q-78 0 -142.5 37t-102.5 101t-38 145q0 82 38 145.5t102 100t143 36.5q80 0 143.5 -36.5t101 -100t37.5 -145.5t-38 -146t-102 -100.5t-142 -36.5zM327 93q48 0 85 23t58.5 63.5t21.5 91.5t-21.5 91t-58.5 63t-85 23q-47 0 -84.5 -23t-59 -63t-21.5 -91
t21.5 -91.5t59 -63.5t84.5 -23zM143 640l118 150h132l119 -150h-116l-69 81l-68 -81h-116zM528 715l-89 140h133l52 -140h-96z" />
    <glyph glyph-name="uni1ED4" unicode="&#x1ed4;" horiz-adv-x="878" 
d="M439 -12q-81 0 -150.5 29t-122 81t-82 122t-29.5 153t29.5 153.5t81.5 122t122 80t151 28.5q82 0 151.5 -28.5t122 -80.5t81.5 -122t29 -153t-29.5 -153t-81.5 -122t-122 -81t-151 -29zM439 96q58 0 106.5 21t84.5 58.5t56 88t20 109.5t-20 109t-56 88t-84.5 59
t-106.5 21t-106.5 -21t-84.5 -59t-55.5 -88t-19.5 -109t19.5 -109.5t55.5 -88t85 -58.5t106 -21zM255 844l118 150h132l119 -150h-116l-69 81l-68 -81h-116zM617 914l-45 55q26 11 36.5 24.5t10.5 31.5q0 17 -14 28t-38 11q-12 0 -23.5 -1.5t-25.5 -7.5l-13 68q18 9 38 12.5
t41 3.5q59 0 94.5 -29t35.5 -77q0 -37 -26.5 -68t-70.5 -51z" />
    <glyph glyph-name="uni1ED5" unicode="&#x1ed5;" horiz-adv-x="653" 
d="M327 -12q-78 0 -142.5 37t-102.5 101t-38 145q0 82 38 145.5t102 100t143 36.5q80 0 143.5 -36.5t101 -100t37.5 -145.5t-38 -146t-102 -100.5t-142 -36.5zM327 93q48 0 85 23t58.5 63.5t21.5 91.5t-21.5 91t-58.5 63t-85 23q-47 0 -84.5 -23t-59 -63t-21.5 -91
t21.5 -91.5t59 -63.5t84.5 -23zM143 640l118 150h132l119 -150h-116l-69 81l-68 -81h-116zM505 710l-45 55q26 11 36.5 24.5t10.5 31.5q0 17 -14 28t-38 11q-12 0 -23.5 -1.5t-25.5 -7.5l-13 68q18 9 38 12.5t41 3.5q59 0 94.5 -29t35.5 -77q0 -37 -26.5 -68t-70.5 -51z" />
    <glyph glyph-name="uni1ED6" unicode="&#x1ed6;" horiz-adv-x="878" 
d="M439 -12q-81 0 -150.5 29t-122 81t-82 122t-29.5 153t29.5 153.5t81.5 122t122 80t151 28.5q82 0 151.5 -28.5t122 -80.5t81.5 -122t29 -153t-29.5 -153t-81.5 -122t-122 -81t-151 -29zM439 96q58 0 106.5 21t84.5 58.5t56 88t20 109.5t-20 109t-56 88t-84.5 59
t-106.5 21t-106.5 -21t-84.5 -59t-55.5 -88t-19.5 -109t19.5 -109.5t55.5 -88t85 -58.5t106 -21zM256 844l118 150h131l119 -150h-116l-68 81l-68 -81h-116zM499 1056q-23 0 -37.5 8.5t-25.5 20t-21 20t-24 8.5q-13 0 -20 -13t-7 -40h-87q0 49 14 81t37.5 47.5t50.5 15.5
q23 0 38.5 -8.5t26.5 -20t21.5 -20t22.5 -8.5q16 0 22 14t6 39h86q0 -69 -30.5 -106.5t-72.5 -37.5z" />
    <glyph glyph-name="uni1ED7" unicode="&#x1ed7;" horiz-adv-x="653" 
d="M327 -12q-78 0 -142.5 37t-102.5 101t-38 145q0 82 38 145.5t102 100t143 36.5q80 0 143.5 -36.5t101 -100t37.5 -145.5t-38 -146t-102 -100.5t-142 -36.5zM327 93q48 0 85 23t58.5 63.5t21.5 91.5t-21.5 91t-58.5 63t-85 23q-47 0 -84.5 -23t-59 -63t-21.5 -91
t21.5 -91.5t59 -63.5t84.5 -23zM144 640l118 150h131l119 -150h-116l-68 81l-68 -81h-116zM387 852q-23 0 -37.5 8.5t-25.5 20t-21 20t-24 8.5q-13 0 -20 -13t-7 -40h-87q0 49 14 81t37.5 47.5t50.5 15.5q23 0 38.5 -8.5t26.5 -20t21.5 -20t22.5 -8.5q16 0 22 14t6 39h86
q0 -69 -30.5 -106.5t-72.5 -37.5z" />
    <glyph glyph-name="uni1ED8" unicode="&#x1ed8;" horiz-adv-x="878" 
d="M439 -12q-81 0 -150.5 29t-122 81t-82 122t-29.5 153t29.5 153.5t81.5 122t122 80t151 28.5q82 0 151.5 -28.5t122 -80.5t81.5 -122t29 -153t-29.5 -153t-81.5 -122t-122 -81t-151 -29zM439 96q58 0 106.5 21t84.5 58.5t56 88t20 109.5t-20 109t-56 88t-84.5 59
t-106.5 21t-106.5 -21t-84.5 -59t-55.5 -88t-19.5 -109t19.5 -109.5t55.5 -88t85 -58.5t106 -21zM377 -215v125h125v-125h-125zM255 844l118 160h132l119 -160h-116l-69 91l-68 -91h-116z" />
    <glyph glyph-name="uni1ED9" unicode="&#x1ed9;" horiz-adv-x="653" 
d="M327 -12q-78 0 -142.5 37t-102.5 101t-38 145q0 82 38 145.5t102 100t143 36.5q80 0 143.5 -36.5t101 -100t37.5 -145.5t-38 -146t-102 -100.5t-142 -36.5zM327 93q48 0 85 23t58.5 63.5t21.5 91.5t-21.5 91t-58.5 63t-85 23q-47 0 -84.5 -23t-59 -63t-21.5 -91
t21.5 -91.5t59 -63.5t84.5 -23zM265 -215v125h125v-125h-125zM143 640l118 160h132l119 -160h-116l-69 91l-68 -91h-116z" />
    <glyph glyph-name="uni1EDA" unicode="&#x1eda;" horiz-adv-x="878" 
d="M439 -12q-81 0 -150.5 29t-122 81t-82 122t-29.5 153t29.5 153.5t81.5 122t122 80t151 28.5h207q9 0 20 2.5t19.5 13.5t8.5 35q0 18 -6 38t-15 40h109q10 -20 17 -41t7 -48q0 -66 -29.5 -94.5t-77.5 -28.5h-63l23 18q50 -33 87 -82t57 -108.5t20 -128.5q0 -83 -29.5 -153
t-81.5 -122t-122 -81t-151 -29zM439 96q58 0 106.5 21t84.5 58.5t56 88t20 109.5t-20 109t-56 88t-84.5 59t-106.5 21t-106.5 -21t-84.5 -59t-55.5 -88t-19.5 -109t19.5 -109.5t55.5 -88t85 -58.5t106 -21zM383 844l73 165h148l-109 -165h-112z" />
    <glyph glyph-name="uni1EDB" unicode="&#x1edb;" horiz-adv-x="653" 
d="M327 -12q-78 0 -142.5 37t-102.5 101t-38 145q0 82 38 145.5t102 100t143 36.5h109q9 0 20.5 3t20 14t8.5 34q0 19 -6.5 39t-14.5 39h100q9 -20 16 -41t7 -47q0 -53 -27.5 -82.5t-72.5 -37.5l7 27q53 -37 84 -96.5t31 -133.5q0 -82 -38 -146t-102 -100.5t-142 -36.5z
M327 93q48 0 85 23t58.5 63.5t21.5 91.5t-21.5 91t-58.5 63t-85 23q-47 0 -84.5 -23t-59 -63t-21.5 -91t21.5 -91.5t59 -63.5t84.5 -23zM271 640l73 165h148l-109 -165h-112z" />
    <glyph glyph-name="uni1EDC" unicode="&#x1edc;" horiz-adv-x="878" 
d="M439 -12q-81 0 -150.5 29t-122 81t-82 122t-29.5 153t29.5 153.5t81.5 122t122 80t151 28.5h207q9 0 20 2.5t19.5 13.5t8.5 35q0 18 -6 38t-15 40h109q10 -20 17 -41t7 -48q0 -66 -29.5 -94.5t-77.5 -28.5h-63l23 18q50 -33 87 -82t57 -108.5t20 -128.5q0 -83 -29.5 -153
t-81.5 -122t-122 -81t-151 -29zM439 96q58 0 106.5 21t84.5 58.5t56 88t20 109.5t-20 109t-56 88t-84.5 59t-106.5 21t-106.5 -21t-84.5 -59t-55.5 -88t-19.5 -109t19.5 -109.5t55.5 -88t85 -58.5t106 -21zM384 844l-109 165h148l73 -165h-112z" />
    <glyph glyph-name="uni1EDD" unicode="&#x1edd;" horiz-adv-x="653" 
d="M327 -12q-78 0 -142.5 37t-102.5 101t-38 145q0 82 38 145.5t102 100t143 36.5h109q9 0 20.5 3t20 14t8.5 34q0 19 -6.5 39t-14.5 39h100q9 -20 16 -41t7 -47q0 -53 -27.5 -82.5t-72.5 -37.5l7 27q53 -37 84 -96.5t31 -133.5q0 -82 -38 -146t-102 -100.5t-142 -36.5z
M327 93q48 0 85 23t58.5 63.5t21.5 91.5t-21.5 91t-58.5 63t-85 23q-47 0 -84.5 -23t-59 -63t-21.5 -91t21.5 -91.5t59 -63.5t84.5 -23zM272 640l-109 165h148l73 -165h-112z" />
    <glyph glyph-name="uni1EDE" unicode="&#x1ede;" horiz-adv-x="878" 
d="M439 -12q-81 0 -150.5 29t-122 81t-82 122t-29.5 153t29.5 153.5t81.5 122t122 80t151 28.5h207q9 0 20 2.5t19.5 13.5t8.5 35q0 18 -6 38t-15 40h109q10 -20 17 -41t7 -48q0 -66 -29.5 -94.5t-77.5 -28.5h-63l23 18q50 -33 87 -82t57 -108.5t20 -128.5q0 -83 -29.5 -153
t-81.5 -122t-122 -81t-151 -29zM439 96q58 0 106.5 21t84.5 58.5t56 88t20 109.5t-20 109t-56 88t-84.5 59t-106.5 21t-106.5 -21t-84.5 -59t-55.5 -88t-19.5 -109t19.5 -109.5t55.5 -88t85 -58.5t106 -21zM447 804l-48 59q27 12 38 25.5t11 32.5q0 18 -14.5 30t-40.5 12
q-12 0 -24 -2t-27 -8l-14 72q19 9 40 13t43 4q63 0 100.5 -30.5t37.5 -81.5q0 -38 -27.5 -71t-74.5 -55z" />
    <glyph glyph-name="uni1EDF" unicode="&#x1edf;" horiz-adv-x="653" 
d="M327 -12q-78 0 -142.5 37t-102.5 101t-38 145q0 82 38 145.5t102 100t143 36.5h109q9 0 20.5 3t20 14t8.5 34q0 19 -6.5 39t-14.5 39h100q9 -20 16 -41t7 -47q0 -53 -27.5 -82.5t-72.5 -37.5l7 27q53 -37 84 -96.5t31 -133.5q0 -82 -38 -146t-102 -100.5t-142 -36.5z
M327 93q48 0 85 23t58.5 63.5t21.5 91.5t-21.5 91t-58.5 63t-85 23q-47 0 -84.5 -23t-59 -63t-21.5 -91t21.5 -91.5t59 -63.5t84.5 -23zM335 600l-48 59q27 12 38 25.5t11 32.5q0 18 -14.5 30t-40.5 12q-12 0 -24 -2t-27 -8l-14 72q19 9 40 13t43 4q63 0 100.5 -30.5
t37.5 -81.5q0 -38 -27.5 -71t-74.5 -55z" />
    <glyph glyph-name="uni1EE0" unicode="&#x1ee0;" horiz-adv-x="878" 
d="M439 -12q-81 0 -150.5 29t-122 81t-82 122t-29.5 153t29.5 153.5t81.5 122t122 80t151 28.5h207q9 0 20 2.5t19.5 13.5t8.5 35q0 18 -6 38t-15 40h109q10 -20 17 -41t7 -48q0 -66 -29.5 -94.5t-77.5 -28.5h-63l23 18q50 -33 87 -82t57 -108.5t20 -128.5q0 -83 -29.5 -153
t-81.5 -122t-122 -81t-151 -29zM439 96q58 0 106.5 21t84.5 58.5t56 88t20 109.5t-20 109t-56 88t-84.5 59t-106.5 21t-106.5 -21t-84.5 -59t-55.5 -88t-19.5 -109t19.5 -109.5t55.5 -88t85 -58.5t106 -21zM508 844q-27 0 -44.5 9t-30 20t-25 20t-29.5 9t-26 -13t-9 -41h-89
q0 74 33 109.5t82 35.5q28 0 45.5 -8.5t30.5 -20t25.5 -20t28.5 -8.5q19 0 27.5 14t8.5 39h88q0 -70 -33.5 -107.5t-82.5 -37.5z" />
    <glyph glyph-name="uni1EE1" unicode="&#x1ee1;" horiz-adv-x="653" 
d="M327 -12q-78 0 -142.5 37t-102.5 101t-38 145q0 82 38 145.5t102 100t143 36.5h109q9 0 20.5 3t20 14t8.5 34q0 19 -6.5 39t-14.5 39h100q9 -20 16 -41t7 -47q0 -53 -27.5 -82.5t-72.5 -37.5l7 27q53 -37 84 -96.5t31 -133.5q0 -82 -38 -146t-102 -100.5t-142 -36.5z
M327 93q48 0 85 23t58.5 63.5t21.5 91.5t-21.5 91t-58.5 63t-85 23q-47 0 -84.5 -23t-59 -63t-21.5 -91t21.5 -91.5t59 -63.5t84.5 -23zM396 640q-27 0 -44.5 9t-30 20t-25 20t-29.5 9t-26 -13t-9 -41h-89q0 74 33 109.5t82 35.5q28 0 45.5 -8.5t30.5 -20t25.5 -20
t28.5 -8.5q19 0 27.5 14t8.5 39h88q0 -70 -33.5 -107.5t-82.5 -37.5z" />
    <glyph glyph-name="uni1EE2" unicode="&#x1ee2;" horiz-adv-x="878" 
d="M439 -12q-81 0 -150.5 29t-122 81t-82 122t-29.5 153t29.5 153.5t81.5 122t122 80t151 28.5h207q9 0 20 2.5t19.5 13.5t8.5 35q0 18 -6 38t-15 40h109q10 -20 17 -41t7 -48q0 -66 -29.5 -94.5t-77.5 -28.5h-63l23 18q50 -33 87 -82t57 -108.5t20 -128.5q0 -83 -29.5 -153
t-81.5 -122t-122 -81t-151 -29zM439 96q58 0 106.5 21t84.5 58.5t56 88t20 109.5t-20 109t-56 88t-84.5 59t-106.5 21t-106.5 -21t-84.5 -59t-55.5 -88t-19.5 -109t19.5 -109.5t55.5 -88t85 -58.5t106 -21zM377 -215v125h125v-125h-125z" />
    <glyph glyph-name="uni1EE3" unicode="&#x1ee3;" horiz-adv-x="653" 
d="M327 -12q-78 0 -142.5 37t-102.5 101t-38 145q0 82 38 145.5t102 100t143 36.5h109q9 0 20.5 3t20 14t8.5 34q0 19 -6.5 39t-14.5 39h100q9 -20 16 -41t7 -47q0 -53 -27.5 -82.5t-72.5 -37.5l7 27q53 -37 84 -96.5t31 -133.5q0 -82 -38 -146t-102 -100.5t-142 -36.5z
M327 93q48 0 85 23t58.5 63.5t21.5 91.5t-21.5 91t-58.5 63t-85 23q-47 0 -84.5 -23t-59 -63t-21.5 -91t21.5 -91.5t59 -63.5t84.5 -23zM265 -215v125h125v-125h-125z" />
    <glyph glyph-name="uni1EE4" unicode="&#x1ee4;" horiz-adv-x="712" 
d="M356 -12q-83 0 -147.5 35t-101 96t-36.5 139v487h118v-482q0 -49 21.5 -87t59 -59t86.5 -21q50 0 87.5 21t59 59t21.5 87v482h117v-487q0 -78 -36 -139t-100.5 -96t-148.5 -35zM294 -215v125h125v-125h-125z" />
    <glyph glyph-name="uni1EE5" unicode="&#x1ee5;" 
d="M259 -12q-61 0 -107 27.5t-71.5 77t-25.5 114.5v334h113v-324q0 -37 15 -65t42 -43.5t62 -15.5q36 0 63 16t42.5 45t15.5 68v319h112v-541h-107v106l12 -14q-19 -50 -63 -77t-103 -27zM231 -215v125h125v-125h-125z" />
    <glyph glyph-name="uni1EE6" unicode="&#x1ee6;" horiz-adv-x="712" 
d="M356 -12q-83 0 -147.5 35t-101 96t-36.5 139v487h118v-482q0 -49 21.5 -87t59 -59t86.5 -21q50 0 87.5 21t59 59t21.5 87v482h117v-487q0 -78 -36 -139t-100.5 -96t-148.5 -35zM364 804l-48 59q27 12 38 25.5t11 32.5q0 18 -14.5 30t-40.5 12q-12 0 -24 -2t-27 -8l-14 72
q19 9 40 13t43 4q63 0 100.5 -30.5t37.5 -81.5q0 -38 -27.5 -71t-74.5 -55z" />
    <glyph glyph-name="uni1EE7" unicode="&#x1ee7;" 
d="M259 -12q-61 0 -107 27.5t-71.5 77t-25.5 114.5v334h113v-324q0 -37 15 -65t42 -43.5t62 -15.5q36 0 63 16t42.5 45t15.5 68v319h112v-541h-107v106l12 -14q-19 -50 -63 -77t-103 -27zM302 600l-48 59q27 12 38 25.5t11 32.5q0 18 -14.5 30t-40.5 12q-12 0 -24 -2t-27 -8
l-14 72q19 9 40 13t43 4q63 0 100.5 -30.5t37.5 -81.5q0 -38 -27.5 -71t-74.5 -55z" />
    <glyph glyph-name="uni1EE8" unicode="&#x1ee8;" horiz-adv-x="712" 
d="M356 -12q-83 0 -147.5 35t-101 96t-36.5 139v487h118v-482q0 -49 21.5 -87t59 -59t86.5 -21q50 0 87.5 21t59 59t21.5 87v482h104q14 0 29.5 8.5t15.5 42.5q0 18 -6 38t-15 40h109q10 -20 17 -41t7 -48q0 -66 -36.5 -97t-100.5 -31h-7v-399q0 -78 -36 -139t-100.5 -96
t-148.5 -35zM300 844l73 165h148l-109 -165h-112z" />
    <glyph glyph-name="uni1EE9" unicode="&#x1ee9;" horiz-adv-x="638" 
d="M259 -12q-61 0 -107 27.5t-71.5 77t-25.5 114.5v334h113v-324q0 -37 15 -65t42 -43.5t62 -15.5q36 0 63 16t42.5 45t15.5 68v319h74q16 0 31 9.5t15 41.5q0 19 -6.5 39t-14.5 39h100q9 -20 16 -41t7 -47q0 -66 -40.5 -95t-104.5 -27l35 47v-507h-107v66q-23 -38 -63 -58
t-91 -20zM238 640l73 165h148l-109 -165h-112z" />
    <glyph glyph-name="uni1EEA" unicode="&#x1eea;" horiz-adv-x="712" 
d="M356 -12q-83 0 -147.5 35t-101 96t-36.5 139v487h118v-482q0 -49 21.5 -87t59 -59t86.5 -21q50 0 87.5 21t59 59t21.5 87v482h104q14 0 29.5 8.5t15.5 42.5q0 18 -6 38t-15 40h109q10 -20 17 -41t7 -48q0 -66 -36.5 -97t-100.5 -31h-7v-399q0 -78 -36 -139t-100.5 -96
t-148.5 -35zM301 844l-109 165h148l73 -165h-112z" />
    <glyph glyph-name="uni1EEB" unicode="&#x1eeb;" horiz-adv-x="638" 
d="M259 -12q-61 0 -107 27.5t-71.5 77t-25.5 114.5v334h113v-324q0 -37 15 -65t42 -43.5t62 -15.5q36 0 63 16t42.5 45t15.5 68v319h74q16 0 31 9.5t15 41.5q0 19 -6.5 39t-14.5 39h100q9 -20 16 -41t7 -47q0 -66 -40.5 -95t-104.5 -27l35 47v-507h-107v66q-23 -38 -63 -58
t-91 -20zM238 640l-109 165h148l73 -165h-112z" />
    <glyph glyph-name="uni1EEC" unicode="&#x1eec;" horiz-adv-x="712" 
d="M356 -12q-83 0 -147.5 35t-101 96t-36.5 139v487h118v-482q0 -49 21.5 -87t59 -59t86.5 -21q50 0 87.5 21t59 59t21.5 87v482h104q14 0 29.5 8.5t15.5 42.5q0 18 -6 38t-15 40h109q10 -20 17 -41t7 -48q0 -66 -36.5 -97t-100.5 -31h-7v-399q0 -78 -36 -139t-100.5 -96
t-148.5 -35zM364 804l-48 59q27 12 38 25.5t11 32.5q0 18 -14.5 30t-40.5 12q-12 0 -24 -2t-27 -8l-14 72q19 9 40 13t43 4q63 0 100.5 -30.5t37.5 -81.5q0 -38 -27.5 -71t-74.5 -55z" />
    <glyph glyph-name="uni1EED" unicode="&#x1eed;" horiz-adv-x="638" 
d="M259 -12q-61 0 -107 27.5t-71.5 77t-25.5 114.5v334h113v-324q0 -37 15 -65t42 -43.5t62 -15.5q36 0 63 16t42.5 45t15.5 68v319h74q16 0 31 9.5t15 41.5q0 19 -6.5 39t-14.5 39h100q9 -20 16 -41t7 -47q0 -66 -40.5 -95t-104.5 -27l35 47v-507h-107v66q-23 -38 -63 -58
t-91 -20zM302 600l-48 59q27 12 38 25.5t11 32.5q0 18 -14.5 30t-40.5 12q-12 0 -24 -2t-27 -8l-14 72q19 9 40 13t43 4q63 0 100.5 -30.5t37.5 -81.5q0 -38 -27.5 -71t-74.5 -55z" />
    <glyph glyph-name="uni1EEE" unicode="&#x1eee;" horiz-adv-x="712" 
d="M356 -12q-83 0 -147.5 35t-101 96t-36.5 139v487h118v-482q0 -49 21.5 -87t59 -59t86.5 -21q50 0 87.5 21t59 59t21.5 87v482h104q14 0 29.5 8.5t15.5 42.5q0 18 -6 38t-15 40h109q10 -20 17 -41t7 -48q0 -66 -36.5 -97t-100.5 -31h-7v-399q0 -78 -36 -139t-100.5 -96
t-148.5 -35zM425 844q-27 0 -44.5 9t-30 20t-25 20t-29.5 9t-26 -13t-9 -41h-89q0 74 33 109.5t82 35.5q28 0 45.5 -8.5t30.5 -20t25.5 -20t28.5 -8.5q19 0 27.5 14t8.5 39h88q0 -70 -33.5 -107.5t-82.5 -37.5z" />
    <glyph glyph-name="uni1EEF" unicode="&#x1eef;" horiz-adv-x="638" 
d="M259 -12q-61 0 -107 27.5t-71.5 77t-25.5 114.5v334h113v-324q0 -37 15 -65t42 -43.5t62 -15.5q36 0 63 16t42.5 45t15.5 68v319h74q16 0 31 9.5t15 41.5q0 19 -6.5 39t-14.5 39h100q9 -20 16 -41t7 -47q0 -66 -40.5 -95t-104.5 -27l35 47v-507h-107v66q-23 -38 -63 -58
t-91 -20zM362 640q-27 0 -44.5 9t-30 20t-25 20t-29.5 9t-26 -13t-9 -41h-89q0 74 33 109.5t82 35.5q28 0 45.5 -8.5t30.5 -20t25.5 -20t28.5 -8.5q19 0 27.5 14t8.5 39h88q0 -70 -33.5 -107.5t-82.5 -37.5z" />
    <glyph glyph-name="uni1EF0" unicode="&#x1ef0;" horiz-adv-x="712" 
d="M356 -12q-83 0 -147.5 35t-101 96t-36.5 139v487h118v-482q0 -49 21.5 -87t59 -59t86.5 -21q50 0 87.5 21t59 59t21.5 87v482h104q14 0 29.5 8.5t15.5 42.5q0 18 -6 38t-15 40h109q10 -20 17 -41t7 -48q0 -66 -36.5 -97t-100.5 -31h-7v-399q0 -78 -36 -139t-100.5 -96
t-148.5 -35zM294 -215v125h125v-125h-125z" />
    <glyph glyph-name="uni1EF1" unicode="&#x1ef1;" horiz-adv-x="638" 
d="M259 -12q-61 0 -107 27.5t-71.5 77t-25.5 114.5v334h113v-324q0 -37 15 -65t42 -43.5t62 -15.5q36 0 63 16t42.5 45t15.5 68v319h74q16 0 31 9.5t15 41.5q0 19 -6.5 39t-14.5 39h100q9 -20 16 -41t7 -47q0 -66 -40.5 -95t-104.5 -27l35 47v-507h-107v66q-23 -38 -63 -58
t-91 -20zM231 -215v125h125v-125h-125z" />
    <glyph glyph-name="Ygrave" unicode="&#x1ef2;" horiz-adv-x="648" 
d="M266 0v336l-255 409h133l204 -331h-47l203 331h133l-254 -409v-336h-117zM269 844l-109 165h148l73 -165h-112z" />
    <glyph glyph-name="ygrave" unicode="&#x1ef3;" horiz-adv-x="569" 
d="M114 -221q-20 0 -39.5 3.5t-35.5 10.5v97q12 -3 29 -5.5t33 -2.5q47 0 69.5 20.5t40.5 63.5l36 82l-2 -95l-234 588h121l173 -451h-41l172 451h122l-239 -600q-19 -48 -47.5 -84.5t-67 -57t-90.5 -20.5zM229 640l-109 165h148l73 -165h-112z" />
    <glyph glyph-name="uni1EF4" unicode="&#x1ef4;" horiz-adv-x="648" 
d="M266 0v336l-255 409h133l204 -331h-47l203 331h133l-254 -409v-336h-117zM262 -215v125h125v-125h-125z" />
    <glyph glyph-name="uni1EF5" unicode="&#x1ef5;" horiz-adv-x="569" 
d="M114 -221q-20 0 -39.5 3.5t-35.5 10.5v97q12 -3 29 -5.5t33 -2.5q47 0 69.5 20.5t40.5 63.5l36 82l-2 -95l-234 588h121l173 -451h-41l172 451h122l-239 -600q-19 -48 -47.5 -84.5t-67 -57t-90.5 -20.5zM457 -115v125h125v-125h-125z" />
    <glyph glyph-name="uni1EF6" unicode="&#x1ef6;" horiz-adv-x="648" 
d="M266 0v336l-255 409h133l204 -331h-47l203 331h133l-254 -409v-336h-117zM332 804l-48 59q27 12 38 25.5t11 32.5q0 18 -14.5 30t-40.5 12q-12 0 -24 -2t-27 -8l-14 72q19 9 40 13t43 4q63 0 100.5 -30.5t37.5 -81.5q0 -38 -27.5 -71t-74.5 -55z" />
    <glyph glyph-name="uni1EF7" unicode="&#x1ef7;" horiz-adv-x="569" 
d="M114 -221q-20 0 -39.5 3.5t-35.5 10.5v97q12 -3 29 -5.5t33 -2.5q47 0 69.5 20.5t40.5 63.5l36 82l-2 -95l-234 588h121l173 -451h-41l172 451h122l-239 -600q-19 -48 -47.5 -84.5t-67 -57t-90.5 -20.5zM293 600l-48 59q27 12 38 25.5t11 32.5q0 18 -14.5 30t-40.5 12
q-12 0 -24 -2t-27 -8l-14 72q19 9 40 13t43 4q63 0 100.5 -30.5t37.5 -81.5q0 -38 -27.5 -71t-74.5 -55z" />
    <glyph glyph-name="uni1EF8" unicode="&#x1ef8;" horiz-adv-x="648" 
d="M266 0v336l-255 409h133l204 -331h-47l203 331h133l-254 -409v-336h-117zM393 844q-27 0 -44.5 9t-30 20t-25 20t-29.5 9t-26 -13t-9 -41h-89q0 74 33 109.5t82 35.5q28 0 45.5 -8.5t30.5 -20t25.5 -20t28.5 -8.5q19 0 27.5 14t8.5 39h88q0 -70 -33.5 -107.5t-82.5 -37.5
z" />
    <glyph glyph-name="uni1EF9" unicode="&#x1ef9;" horiz-adv-x="569" 
d="M114 -221q-20 0 -39.5 3.5t-35.5 10.5v97q12 -3 29 -5.5t33 -2.5q47 0 69.5 20.5t40.5 63.5l36 82l-2 -95l-234 588h121l173 -451h-41l172 451h122l-239 -600q-19 -48 -47.5 -84.5t-67 -57t-90.5 -20.5zM353 640q-27 0 -44.5 9t-30 20t-25 20t-29.5 9t-26 -13t-9 -41h-89
q0 74 33 109.5t82 35.5q28 0 45.5 -8.5t30.5 -20t25.5 -20t28.5 -8.5q19 0 27.5 14t8.5 39h88q0 -70 -33.5 -107.5t-82.5 -37.5z" />
    <glyph glyph-name="uni2002" unicode="&#x2002;" horiz-adv-x="500" 
 />
    <glyph glyph-name="uni2003" unicode="&#x2003;" horiz-adv-x="1000" 
 />
    <glyph glyph-name="uni2007" unicode="&#x2007;" horiz-adv-x="600" 
 />
    <glyph glyph-name="uni2008" unicode="&#x2008;" horiz-adv-x="347" 
 />
    <glyph glyph-name="uni2009" unicode="&#x2009;" horiz-adv-x="205" 
 />
    <glyph glyph-name="uni200A" unicode="&#x200a;" horiz-adv-x="42" 
 />
    <glyph glyph-name="uni200B" unicode="&#x200b;" horiz-adv-x="0" 
 />
    <glyph glyph-name="uni2010" unicode="&#x2010;" horiz-adv-x="566" 
d="M91 221v100h400v-100h-400z" />
    <glyph glyph-name="figuredash" unicode="&#x2012;" horiz-adv-x="626" 
d="M91 221v100h460v-100h-460z" />
    <glyph glyph-name="endash" unicode="&#x2013;" horiz-adv-x="626" 
d="M83 221v100h460v-100h-460z" />
    <glyph glyph-name="emdash" unicode="&#x2014;" horiz-adv-x="956" 
d="M83 221v100h790v-100h-790z" />
    <glyph glyph-name="uni2015" unicode="&#x2015;" horiz-adv-x="956" 
d="M91 221v100h790v-100h-790z" />
    <glyph glyph-name="quoteleft" unicode="&#x2018;" horiz-adv-x="328" 
d="M95 490v85q0 73 34.5 120.5t100.5 61.5v-55q-32 -8 -50 -29.5t-22 -52.5h52v-130h-115z" />
    <glyph glyph-name="quoteright" unicode="&#x2019;" horiz-adv-x="328" 
d="M95 478v55q33 8 51 29.5t22 52.5h-53v130h115v-85q0 -73 -34 -120.5t-101 -61.5z" />
    <glyph glyph-name="quotesinglbase" unicode="&#x201a;" horiz-adv-x="328" 
d="M95 -137v55q33 8 51 29.5t22 52.5h-53v130h115v-85q0 -73 -34 -120.5t-101 -61.5z" />
    <glyph glyph-name="quotedblleft" unicode="&#x201c;" horiz-adv-x="513" 
d="M280 490v85q0 73 34.5 120.5t100.5 61.5v-55q-32 -8 -50 -29.5t-22 -52.5h52v-130h-115zM95 490v85q0 73 34.5 120.5t100.5 61.5v-55q-32 -8 -50 -29.5t-22 -52.5h52v-130h-115z" />
    <glyph glyph-name="quotedblright" unicode="&#x201d;" horiz-adv-x="513" 
d="M280 478v55q33 8 51 29.5t22 52.5h-53v130h115v-85q0 -73 -34 -120.5t-101 -61.5zM95 478v55q33 8 51 29.5t22 52.5h-53v130h115v-85q0 -73 -34 -120.5t-101 -61.5z" />
    <glyph glyph-name="quotedblbase" unicode="&#x201e;" horiz-adv-x="513" 
d="M95 -137v55q33 8 51 29.5t22 52.5h-53v130h115v-85q0 -73 -34 -120.5t-101 -61.5zM280 -137v55q33 8 51 29.5t22 52.5h-53v130h115v-85q0 -73 -34 -120.5t-101 -61.5z" />
    <glyph glyph-name="dagger" unicode="&#x2020;" horiz-adv-x="657" 
d="M271 -190v621h-212v107h212v207h115v-207h213v-107h-213v-621h-115z" />
    <glyph glyph-name="daggerdbl" unicode="&#x2021;" horiz-adv-x="689" 
d="M287 -190v207h-212v108h212v306h-212v107h212v207h115v-207h213v-107h-213v-306h213v-108h-213v-207h-115z" />
    <glyph glyph-name="bullet" unicode="&#x2022;" horiz-adv-x="617" 
d="M312 76q-56 0 -100 25.5t-70 69.5t-26 101q0 53 25.5 95.5t69.5 68t101 25.5q54 0 96 -25.5t67 -68.5t26 -95q0 -57 -25 -101t-68 -69.5t-96 -25.5z" />
    <glyph glyph-name="ellipsis" unicode="&#x2026;" horiz-adv-x="747" 
d="M116 0v130h115v-130h-115zM316 0v130h115v-130h-115zM516 0v130h115v-130h-115z" />
    <glyph glyph-name="perthousand" unicode="&#x2030;" horiz-adv-x="1458" 
d="M148 0l606 745h126l-606 -745h-126zM262 367q-55 0 -99 26.5t-70.5 70.5t-26.5 98t26.5 98.5t70.5 70.5t99 26t99 -26t70 -70.5t26 -98.5t-26 -98t-70 -70.5t-99 -26.5zM262 458q31 0 53.5 15t34.5 39t12 50q0 27 -12 50.5t-34.5 38.5t-53.5 15q-30 0 -53 -15
t-35.5 -38.5t-12.5 -50.5q0 -26 12.5 -50t35.5 -39t53 -15zM761 -12q-55 0 -99.5 26.5t-70.5 70.5t-26 98t26 98.5t70.5 70.5t99.5 26t99 -26t70 -70.5t26 -98.5t-26 -98t-70 -70.5t-99 -26.5zM761 79q31 0 53 15t34.5 39t12.5 50q0 27 -12.5 50.5t-34.5 38.5t-53 15
q-30 0 -53 -15t-35.5 -38.5t-12.5 -50.5q0 -26 12.5 -50t35.5 -39t53 -15zM1197 -12q-55 0 -99.5 26.5t-70.5 70.5t-26 98t26 98.5t70.5 70.5t99.5 26t99 -26t70 -70.5t26 -98.5t-26 -98t-70 -70.5t-99 -26.5zM1197 79q31 0 53 15t34.5 39t12.5 50q0 27 -12.5 50.5
t-34.5 38.5t-53 15q-30 0 -53 -15t-35.5 -38.5t-12.5 -50.5q0 -26 12.5 -50t35.5 -39t53 -15z" />
    <glyph glyph-name="minute" unicode="&#x2032;" horiz-adv-x="346" 
d="M124 484v261h105l-14 -261h-91z" />
    <glyph glyph-name="second" unicode="&#x2033;" horiz-adv-x="521" 
d="M124 484v261h105l-14 -261h-91zM299 484v261h105l-15 -261h-90z" />
    <glyph glyph-name="guilsinglleft" unicode="&#x2039;" horiz-adv-x="359" 
d="M193 74l-153 195l153 195h126l-152 -195l152 -195h-126z" />
    <glyph glyph-name="guilsinglright" unicode="&#x203a;" horiz-adv-x="359" 
d="M40 74l152 195l-152 195h127l153 -195l-153 -195h-127z" />
    <glyph glyph-name="fraction" unicode="&#x2044;" horiz-adv-x="208" 
d="M-165 0l446 745h90l-446 -745h-90z" />
    <glyph glyph-name="uni2070" unicode="&#x2070;" horiz-adv-x="490" 
d="M245 216q-62 0 -109.5 34t-73.5 94.5t-26 140.5t26 141t73 94.5t109 33.5q64 0 111 -33.5t73 -94.5t26 -141t-26 -141t-73 -94.5t-110 -33.5zM245 305q35 0 60 22t38.5 62.5t13.5 95.5q0 56 -13.5 96t-38.5 62t-61 22q-33 0 -58 -22t-38.5 -61.5t-13.5 -96.5
q0 -55 13.5 -95.5t38.5 -62.5t59 -22z" />
    <glyph glyph-name="uni2074" unicode="&#x2074;" horiz-adv-x="473" 
d="M270 224v115h-238v82l232 325h102v-326h77v-81h-77v-115h-96zM103 385l-17 35h184v249l25 -8z" />
    <glyph glyph-name="uni2075" unicode="&#x2075;" horiz-adv-x="432" 
d="M211 216q-40 0 -77.5 15t-65 43t-37.5 68l85 30q12 -34 38 -51t57 -17q39 0 64 25t25 65q0 26 -11.5 46t-31 31.5t-46.5 11.5q-25 0 -47.5 -11.5t-31.5 -34.5l-80 19l41 290h286v-83h-247l38 43l-30 -218l-29 23q20 29 48.5 42t68.5 13q52 0 90 -22.5t59 -61t21 -88.5
q0 -51 -24.5 -91t-66.5 -63.5t-96 -23.5z" />
    <glyph glyph-name="uni2076" unicode="&#x2076;" horiz-adv-x="420" 
d="M211 216q-53 0 -94.5 22.5t-64.5 61.5t-23 89q0 41 14.5 80t51.5 87l146 190h117l-176 -226l-16 17q15 11 29.5 15t31.5 4q48 0 85 -21.5t58.5 -59t21.5 -84.5q0 -50 -23.5 -90t-64 -62.5t-93.5 -22.5zM211 304q35 0 59 24t24 62t-24 61.5t-59 23.5t-59.5 -23.5
t-24.5 -61.5t24.5 -62t59.5 -24z" />
    <glyph glyph-name="uni2077" unicode="&#x2077;" horiz-adv-x="385" 
d="M49 224l216 439h-245v83h347v-83l-210 -439h-108z" />
    <glyph glyph-name="uni2078" unicode="&#x2078;" horiz-adv-x="451" 
d="M224 216q-56 0 -98 21.5t-64.5 57.5t-22.5 80q0 51 27.5 86t78.5 52l-6 -24q-37 12 -58.5 46.5t-21.5 75.5q0 42 21.5 74t58.5 50.5t85 18.5t85.5 -18.5t59 -50.5t21.5 -74q0 -41 -21.5 -75.5t-58.5 -46.5l-5 25q52 -19 79 -54.5t27 -85.5q0 -43 -23 -79t-64.5 -57.5
t-99.5 -21.5zM224 298q40 0 64.5 22t24.5 58q0 35 -24.5 56.5t-64.5 21.5q-39 0 -63 -21.5t-24 -56.5q0 -36 24.5 -58t62.5 -22zM224 539q31 0 49.5 19t18.5 47q0 29 -19 47.5t-49 18.5q-29 0 -48 -18.5t-19 -47.5q0 -28 19 -47t48 -19z" />
    <glyph glyph-name="uni2079" unicode="&#x2079;" horiz-adv-x="420" 
d="M63 224l176 226l16 -17q-17 -11 -32 -15t-34 -4q-46 0 -82 21.5t-57 59t-21 84.5q0 50 23 89.5t64.5 62.5t94.5 23t94 -22.5t64 -61.5t23 -89q0 -38 -13 -77t-53 -90l-146 -190h-117zM211 495q35 0 59 24t24 61q0 38 -24 62t-59 24t-59.5 -24t-24.5 -62q0 -37 24.5 -61
t59.5 -24z" />
    <glyph glyph-name="uni207A" unicode="&#x207a;" horiz-adv-x="492" 
d="M206 308v135h-135v81h135v134h81v-134h134v-81h-134v-135h-81z" />
    <glyph glyph-name="uni207B" unicode="&#x207b;" horiz-adv-x="507" 
d="M96 443v81h315v-81h-315z" />
    <glyph glyph-name="uni207C" unicode="&#x207c;" horiz-adv-x="507" 
d="M96 518v80h315v-80h-315zM96 347v82h315v-82h-315z" />
    </font>
</defs>
</svg>
